Джокер 3. Охота на зверя / Сезон: 3 / Серии: 1-4 из 4 (Михаил Погосов) [2018, боевик, SATRip]


by Boris G ®
23-Дек-2018 15:23

[Цитировать]

Джокер 3. Охота на зверя / Сезон: 3 / Серии: 1-4 из 4 (Михаил Погосов) [2018, боевик, SATRip]

Джокер 3. Охота на зверя
Год выпуска: 2018
Производство: Кинокомпания BERG SOUND
Жанр: боевик
Продолжительность: ~00:49:00 серия
Субтитры: нет
Режиссёр: Михаил Погосов
В ролях: Дмитрий Клепацкий, Игорь Савочкин, Юрий Кормушин, Евгений Березовский, Анна Невская, Олег Шкловский, Игорь Жижикин, Татьяна Храмова
Описание: Артур «Джокер» Королёв — бывший сотрудник спецслужб. Обстоятельства вынуждают его вернуться в строй, сделав всё возможное для помощи старым друзьям. Джокеру предстоит избавить провинциальный город от власти мэра-коррупционера, который погряз в связях с криминальными организациями.

Реклама: Нет.
Кинопоиск
Все раздачи сериала
Sample
Качество: SATRip - 25Kuzmich
Формат: AVI
Видео кодек: XviD
Аудио кодек: MP3
Видео: 720x400 (1.80:1), 25 fps, XviD ~1650 kbps avg, 0.229 bit/pixel
Аудио: 48 kHz, MPEG Layer 3, 2 ch, ~192.00 kbps avg

MI

General
Complete name : D:\Dzoker.S03.XviD.SATRip.25Kuzmich\Dzoker.s03.e01.XviD.SATRip.25Kuzmich.avi
Format : AVI
Format/Info : Audio Video Interleave
File size : 660 MiB
Duration : 49 min 48 s
Overall bit rate : 1 852 kb/s
Writing application : VirtualDubMod 1.5.10.3 | www.virtualdub-fr.org || (build 2550/release)
Writing library : VirtualDubMod build 2550/release
Video
ID : 0
Format : MPEG-4 Visual
Format profile : Advanced Simple@L5
Format settings : BVOP1
Format settings, BVOP : 1
Format settings, QPel : No
Format settings, GMC : No warppoints
Format settings, Matrix : Default (MPEG)
Codec ID : XVID
Codec ID/Hint : XviD
Duration : 49 min 48 s
Bit rate : 1 650 kb/s
Width : 720 pixels
Height : 400 pixels
Display aspect ratio : 16:9
Frame rate : 25.000 FPS
Color space : YUV
Chroma subsampling : 4:2:0
Bit depth : 8 bits
Scan type : Progressive
Compression mode : Lossy
Bits/(Pixel*Frame) : 0.229
Stream size : 588 MiB (89%)
Writing library : XviD 1.2.1 (UTC 2008-12-04)
Audio
ID : 1
Format : MPEG Audio
Format version : Version 1
Format profile : Layer 3
Format settings : Joint stereo / MS Stereo
Codec ID : 55
Codec ID/Hint : MP3
Duration : 49 min 48 s
Bit rate mode : Constant
Bit rate : 192 kb/s
Channel(s) : 2 channels
Sampling rate : 48.0 kHz
Frame rate : 41.667 FPS (1152 SPF)
Compression mode : Lossy
Stream size : 68.4 MiB (10%)
Alignment : Aligned on interleaves
Interleave, duration : 40 ms (1.00 video frame)
Interleave, preload duratio : 504 ms
Writing library : LAME3.99r
Encoding settings : -m j -V 4 -q 2 -lowpass 18.6 -b 192

Скриншоты


Скачать

Скачать бесплатно и на максимальной скорости!

Как скачивать? · Что такое торрент? · Рейтинг и ограничения




Вы не можете начинать темы
Вы не можете отвечать на сообщения
Вы не можете редактировать свои сообщения
Вы не можете удалять свои сообщения
Вы не можете голосовать в опросах
Вы не можете прикреплять файлы к сообщениям
Вы не можете скачивать файлы