Беглянка / Серии: 1-4 из 4 (Алина Чеботарева) [2018, драма, мелодрама, WEBRip]


by Boris G ®
23-Дек-2018 15:23

[Цитировать]

Беглянка / Серии: 1-4 из 4 (Алина Чеботарева) [2018, драма, мелодрама, WEBRip]

Беглянка
Год выпуска: 2018
Производство: Star Media
Жанр: драма, мелодрама
Продолжительность: ~00:46:00 серия
Субтитры: нет
Режиссёр: Алина Чеботарева
В ролях: Александр Никитин, Анна Миклош, Игорь Рубашкин, Алиса Лукшина, Ева Шевченко-Головко, Тамара Антропова, Сергей Радченко, Денис Роднянский, Екатерина Варченко, Ирина Бибик
Описание: Она пыталась убежать от обстоятельств, от беды, от себя… Даже не надеясь, что найдется тот, кто обнимет, поддержит и нежно шепнет: «Беглянка ты моя…». 36-летняя Анна — врач высшей категории. Случайно она стала свидетелем попытки убийства. И вынуждена бежать вместе с двумя детьми, куда глаза глядят… Без денег, вещей и документов. Авария и, в результате этого, травма плеча у сына, приводят Анну в небольшой провинциальный городок. А необходимость заработать денег, заставляет устроиться в местную больницу медсестрой. Как повлияют на жизнь ее семьи новые коллеги? Удастся ли Анне противостоять преступнику, который гонится за ней по пятам? И, наконец, появится ли в ее жизни тот, самый главный?..

Реклама: Нет.
Кинопоиск
Все раздачи сериала
Sample
Качество: WEBRip
Формат: AVI
Видео кодек: XviD
Аудио кодек: AC3
Видео: 720x400 (1.80:1), 25 fps, XviD ~1600 kbps avg, 0.220 bit/pixel
Аудио: 44.1 kHz, AC3 Dolby Digital, 2/0 (L,R) ch, ~ 192 kbps

MI

General
Complete name : D:\Беглянка (2018)\Беглянка.01.WEBDLRip..avi
Format : AVI
Format/Info : Audio Video Interleave
File size : 593 MiB
Duration : 46 min 25 s
Overall bit rate : 1 787 kb/s
Writing application : VirtualDubMod 1.5.10.3 | www.virtualdub-fr.org || (build 2550/release)
Writing library : VirtualDubMod build 2550/release
IsTruncated : Yes
Video
ID : 0
Format : MPEG-4 Visual
Format profile : Advanced Simple@L5
Format settings : BVOP2
Format settings, BVOP : 2
Format settings, QPel : No
Format settings, GMC : No warppoints
Format settings, Matrix : Default (H.263)
Codec ID : XVID
Codec ID/Hint : XviD
Duration : 46 min 25 s
Bit rate : 1 585 kb/s
Width : 720 pixels
Height : 400 pixels
Display aspect ratio : 16:9
Frame rate : 25.000 FPS
Color space : YUV
Chroma subsampling : 4:2:0
Bit depth : 8 bits
Scan type : Progressive
Compression mode : Lossy
Bits/(Pixel*Frame) : 0.220
Stream size : 526 MiB (89%)
Writing library : XviD 1.2.1 (UTC 2008-12-04)
Audio
ID : 1
Format : AC-3
Format/Info : Audio Coding 3
Codec ID : 2000
Duration : 46 min 25 s
Bit rate mode : Constant
Bit rate : 192 kb/s
Channel(s) : 2 channels
Channel positions : Front: L R
Sampling rate : 44.1 kHz
Frame rate : 28.711 FPS (1536 SPF)
Bit depth : 16 bits
Compression mode : Lossy
Stream size : 63.7 MiB (11%)
Alignment : Split accross interleaves
Interleave, duration : 40 ms (1.00 video frame)
Interleave, preload duratio : 500 ms
Service kind : Complete Main

Скриншоты


Скачать

Скачать бесплатно и на максимальной скорости!

Как скачивать? · Что такое торрент? · Рейтинг и ограничения




Вы не можете начинать темы
Вы не можете отвечать на сообщения
Вы не можете редактировать свои сообщения
Вы не можете удалять свои сообщения
Вы не можете голосовать в опросах
Вы не можете прикреплять файлы к сообщениям
Вы не можете скачивать файлы