Беглянка / Серии: 1-4 из 4 (Алина Чеботарева) [2018, драма, мелодрама, WEBRip 1080p]


by Boris G ®
23-Дек-2018 15:23

[Цитировать]

Беглянка / Серии: 1-4 из 4 (Алина Чеботарева) [2018, драма, мелодрама, WEBRip 1080p]

Беглянка
Год выпуска: 2018
Производство: Star Media
Жанр: драма, мелодрама
Продолжительность: ~00:46:00 серия
Субтитры: нет
Режиссёр: Алина Чеботарева
В ролях: Александр Никитин, Анна Миклош, Игорь Рубашкин, Алиса Лукшина, Ева Шевченко-Головко, Тамара Антропова, Сергей Радченко, Денис Роднянский, Екатерина Варченко, Ирина Бибик
Описание: Она пыталась убежать от обстоятельств, от беды, от себя… Даже не надеясь, что найдется тот, кто обнимет, поддержит и нежно шепнет: «Беглянка ты моя…». 36-летняя Анна — врач высшей категории. Случайно она стала свидетелем попытки убийства. И вынуждена бежать вместе с двумя детьми, куда глаза глядят… Без денег, вещей и документов. Авария и, в результате этого, травма плеча у сына, приводят Анну в небольшой провинциальный городок. А необходимость заработать денег, заставляет устроиться в местную больницу медсестрой. Как повлияют на жизнь ее семьи новые коллеги? Удастся ли Анне противостоять преступнику, который гонится за ней по пятам? И, наконец, появится ли в ее жизни тот, самый главный?..

Реклама: Нет.
Кинопоиск
Все раздачи сериала
Sample
Качество: WEBRip 1080p - Olyanchik
Формат: MKV
Видео кодек: H.264
Аудио кодек: AC3
Видео: MPEG4 AVC Video, H264, 16:9, 1920x1080, 25 fps, ~2700 kbps, 0.052 bit/pixel
Аудио: AC3 Dolby Digital, 44.1 kHz, 2/0 (L,R) ch, 192 kbps

MI

General
Unique ID : 220876405471926758956887309943611841428 (0xA62B3F9299CB4A4D82E4F9A207D7DB94)
Complete name : D:\Beglyanka.2018.WEB-DL.(1080р).Kinozal-Reliz.by.Olyanchik\01.Beglyanka.2018.WEB-DL.(1080р).Kinozal-Reliz.by.Olyanchik.mkv
Format : Matroska
Format version : Version 4 / Version 2
File size : 960 MiB
Duration : 46 min 25 s
Overall bit rate : 2 892 kb/s
Encoded date : UTC 2018-11-11 15:00:13
Writing application : mkvmerge v9.6.0 ('Slave To Your Mind') 64bit
Writing library : libebml v1.3.4 + libmatroska v1.4.5
Video
ID : 1
Format : AVC
Format/Info : Advanced Video Codec
Format profile : High@L4
Format settings : CABAC / 2 Ref Frames
Format settings, CABAC : Yes
Format settings, ReFrames : 2 frames
Codec ID : V_MPEG4/ISO/AVC
Duration : 46 min 25 s
Bit rate : 2 698 kb/s
Width : 1 920 pixels
Height : 1 080 pixels
Display aspect ratio : 16:9
Frame rate mode : Constant
Frame rate : 25.000 FPS
Color space : YUV
Chroma subsampling : 4:2:0
Bit depth : 8 bits
Scan type : Progressive
Bits/(Pixel*Frame) : 0.052
Stream size : 896 MiB (93%)
Default : Yes
Forced : No
Color range : Limited
Color primaries : BT.709
Transfer characteristics : BT.709
Matrix coefficients : BT.709
Audio
ID : 2
Format : AC-3
Format/Info : Audio Coding 3
Codec ID : A_AC3
Duration : 46 min 25 s
Bit rate mode : Constant
Bit rate : 192 kb/s
Channel(s) : 2 channels
Channel positions : Front: L R
Sampling rate : 44.1 kHz
Frame rate : 28.711 FPS (1536 SPF)
Bit depth : 16 bits
Compression mode : Lossy
Stream size : 63.7 MiB (7%)
Service kind : Complete Main
Default : Yes
Forced : No

Скриншоты


Скачать

Скачать бесплатно и на максимальной скорости!

Как скачивать? · Что такое торрент? · Рейтинг и ограничения




Вы не можете начинать темы
Вы не можете отвечать на сообщения
Вы не можете редактировать свои сообщения
Вы не можете удалять свои сообщения
Вы не можете голосовать в опросах
Вы не можете прикреплять файлы к сообщениям
Вы не можете скачивать файлы