Пёс / Сезон: 4 / Серии: 1-11 из 20 (Николай Каптан, Игорь Забара) [2018, Детектив, WEBRip 720p]


by Boris G ®
23-Дек-2018 15:24

[Цитировать]

Пёс / Сезон: 4 / Серии: 1-11 из 20 (Николай Каптан, Игорь Забара) [2018, Детектив, WEBRip 720p]

Пёс- Год выпуска: 2018
Производство: PRO-TV
Жанр: Детектив
Продолжительность: ~ 00:52:00
Субтитры: Нет-Режиссёр: Николай Каптан, Игорь Забара-В ролях: Андрей Саминин, Никита Панфилов, Михаил Жонин, Ольга Олексий, Денис Роднянский, Светлана Зельбет, Ольга Морозова, Тарас Мельничук-Описание: Макс – алкоголик. Когда-то лучший сыщик в городе, Макс потерял все – работу, друзей, жену. У него остался единственный друг – Пес. После серии погонь, драк и перестрелок, Пес и Макс раскрыли тайну загадочного убийства. Макс с Псом снова стали детективами. Теперь каждый день начинается с того, что Пес и Макс пытаются выяснить, кто совершил преступление... И выяснить – кто из них лучший сыщик в городе!-Реклама: Нет-Сэмпл: http://multi-up.com/1214587-Качество: WEBRip 720p - Алехаndr
Формат: MKV
Видео кодек: H.264
Аудио кодек: AC3
Видео: MPEG-4 AVC, ~ 2990 Кбит/с, 1280x720, 25,000 кадров/сек, 0.130 bit/pixel
Аудио: 48.0 kHz, AC3 Dolby Digital, 2/0 (L,R) ch, ~ 192 kbps-

MI

Общее
Уникальный идентификатор : 27711446991076515744382266990354129315 (0x14D907D288A96D8CC25304DE23EA61A3)
Полное имя : E:\Пес (2018).by.Алехаndr\Серия 01.by.Алехаndr.mkv
Формат : Matroska
Версия формата : Version 4
Размер файла : 1,16 Гбайт
Продолжительность : 52 м. 0 с.
Общий поток : 3184 Кбит/сек
Дата кодирования : UTC 2018-10-27 08:28:14
Программа кодирования : mkvmerge v28.2.0 ('The Awakening') 64-bit
Библиотека кодирования : libebml v1.3.6 + libmatroska v1.4.9 / Lavf57.71.100
Видео
Идентификатор : 1
Формат : AVC
Формат/Информация : Advanced Video Codec
Профиль формата : Main@L3.1
Настройки формата : CABAC / 1 Ref Frames
Параметр CABAC формата : Да
Параметр RefFrames формата : 1 кадр
Параметр GOP формата : M=1, N=25
Идентификатор кодека : V_MPEG4/ISO/AVC
Продолжительность : 52 м. 0 с.
Битрейт : 2990 Кбит/сек
Ширина : 1280 пикселей
Высота : 720 пикселей
Соотношение сторон : 16:9
Режим частоты кадров : Постоянный
Частота кадров : 25,000 кадров/сек
Цветовое пространство : YUV
Субдискретизация насыщенности : 4:2:0
Битовая глубина : 8 бит
Тип развёртки : Прогрессивная
Бит/(Пиксели*Кадры) : 0.130
Размер потока : 1,09 Гбайт (94%)
Default : Да
Forced : Нет
Аудио
Идентификатор : 2
Формат : AC-3
Формат/Информация : Audio Coding 3
Коммерческое название : Dolby Digital
Идентификатор кодека : A_AC3
Продолжительность : 52 м. 0 с.
Вид битрейта : Постоянный
Битрейт : 192 Кбит/сек
Каналы : 2 канала
Channel layout : L R
Частота : 48,0 КГц
Частота кадров : 31,250 кадров/сек (1536 SPF)
Битовая глубина : 16 бит
Метод сжатия : С потерями
Размер потока : 71,4 Мбайт (6%)
ServiceKind/String : Complete Main
Default : Да
Forced : Нет
-

Скриншоты

-Предыдущие и альтернативные раздачи
Скачать

Скачать бесплатно и на максимальной скорости!

Как скачивать? · Что такое торрент? · Рейтинг и ограничения




Вы не можете начинать темы
Вы не можете отвечать на сообщения
Вы не можете редактировать свои сообщения
Вы не можете удалять свои сообщения
Вы не можете голосовать в опросах
Вы не можете прикреплять файлы к сообщениям
Вы не можете скачивать файлы