Агент особого назначения / Сезон: 1-4 / Серии: 1-48 из 48 (Константин Статский, Наталья Шабанова, Андрей Элинсон) [2009-2012, детектив, криминальный фильм, комедия, WEBRip-AVC]


by Boris G ®
23-Дек-2018 15:24

[Цитировать]

Агент особого назначения / Сезон: 1-4 / Серии: 1-48 из 48 (Константин Статский, Наталья Шабанова, Андрей Элинсон) [2009-2012, детектив, криминальный фильм, комедия, WEBRip-AVC]

Агент особого назначения-1,2,3,4
Год выпуска: 2009-2012
Производство: Студия "Панорама", "Форвард-фильм"
Жанр: детектив, криминальный фильм, комедия
Продолжительность: 48 x ~ 00:45:00
Субтитры: Нет
Режиссёр: Константин Статский, Наталья Шабанова, Андрей Элинсон
В ролях: Сергей Перегудов, Владимир Матвеев, Михаил Трясоруков, Андрей Феськов, Виталий Горев, Александр Ронис, Александр Бахаревский, Николай Буров, Александр Глинский, Андрей Лёвин, Сергей Каргин, Валерий Гришко, Вероника (Ника) Козоровицкая, Сергей Уманов, Марьяна Кирсанова, Максим Меркулов (II), Олег Жилин, Максим Сергеев, Дмитрий Аверин, Михаил Почтарёв, Александр Шпилько, Юлия Рудина, Ирина Соколова (II), Зоя Буряк, Юлия Нижельская, Сергей Лысов, Игорь Качаев, Юрий Сташин, Александр Сластин, Анна Твеленева, Евгений Карпов, Андрей Кузнецов, Владимир Артёмов, Дмитрий Смородский, Сергей Дмитровский, Оксана Базилевич, Сергей Яценюк, Полина Толстун, Александр Дергапутский, Роман Кочержевский, Наталия Вязовская, Николай Смирнов (III), Андрей Матюков, Игорь Головин, Лев Елисеев, Юрий Ковалёв, Сергей Гамов, Сергей Занин, Любовь Макеева, Дмитрий Сутырин, Ирина Линдорф, Юрий Богинич, Игорь Ключников
Описание: Ему поручают самые сложные и рискованные дела, и он привык работать в одиночку. Ему часто приходится нести ответственность за дела государственного, а иногда и международного масштаба. Это Джеймс Бонд? Нет. Лучше. Это - Игнат Барабанов – агент особого назначения.
Реклама: Нет
Сэмпл: http://multi-up.com/1214069
Качество: WEBRip-AVC
Формат: MKV
Видео кодек: H.264
Аудио кодек: AC3
Видео: MPEG-4 (AVC), 720x400, 720x432@768x432, 25 fps, ~ 1600 kbps, 0.21 bit/pixel
Аудио: AC3, 48.0 kHz, 2 ch, 192 Kbps

MI

Агент особого назначения-1

General
Unique ID : 179387665228138044716793038952183038196 (0x86F4CEBFA33CB0DB9D41D959C71B00F4)
Complete name : Агент особого назначения (01 сер.).mkv
Format : Matroska
Format version : Version 2
File size : 580 MiB
Duration : 45 min 11 s
Overall bit rate : 1 793 kb/s
Encoded date : UTC 2018-07-21 12:29:38
Writing application : mkvmerge v7.8.0 ('River Man') 32bit built on Apr 3 2015 12:11:22
Writing library : libebml v1.3.1 + libmatroska v1.4.2
Video
ID : 1
Format : AVC
Format/Info : Advanced Video Codec
Format profile : High@L3
Format settings : CABAC / 6 Ref Frames
Format settings, CABAC : Yes
Format settings, ReFrames : 6 frames
Codec ID : V_MPEG4/ISO/AVC
Duration : 45 min 11 s
Bit rate : 1 600 kb/s
Width : 720 pixels
Height : 400 pixels
Display aspect ratio : 16:9
Frame rate mode : Constant
Frame rate : 25.000 FPS
Color space : YUV
Chroma subsampling : 4:2:0
Bit depth : 8 bits
Scan type : Progressive
Bits/(Pixel*Frame) : 0.222
Stream size : 506 MiB (87%)
Writing library : x264 core 155 r2901 7d0ff22
Encoding settings : cabac=1 / ref=6 / deblock=1:0:0 / analyse=0x3:0x113 / me=umh / subme=8 / psy=1 / psy_rd=1.00:0.00 / mixed_ref=1 / me_range=24 / chroma_me=1 / trellis=1 / 8x8dct=1 / cqm=0 / deadzone=21,11 / fast_pskip=1 / chroma_qp_offset=-2 / threads=8 / lookahead_threads=1 / sliced_threads=0 / nr=0 / decimate=1 / interlaced=0 / bluray_compat=0 / stitchable=1 / constrained_intra=0 / bframes=6 / b_pyramid=2 / b_adapt=1 / b_bias=0 / direct=3 / weightb=1 / open_gop=0 / weightp=2 / keyint=250 / keyint_min=25 / scenecut=40 / intra_refresh=0 / rc_lookahead=40 / rc=2pass / mbtree=1 / bitrate=1600 / ratetol=1.0 / qcomp=0.60 / qpmin=0 / qpmax=69 / qpstep=4 / cplxblur=20.0 / qblur=0.5 / ip_ratio=1.40 / aq=1:1.00
Default : Yes
Forced : No
Audio
ID : 2
Format : AC-3
Format/Info : Audio Coding 3
Commercial name : Dolby Digital
Codec ID : A_AC3
Duration : 45 min 11 s
Bit rate mode : Constant
Bit rate : 192 kb/s
Channel(s) : 2 channels
Channel layout : L R
Sampling rate : 48.0 kHz
Frame rate : 31.250 FPS (1536 SPF)
Bit depth : 16 bits
Compression mode : Lossy
Stream size : 62.1 MiB (11%)
Service kind : Complete Main
Default : Yes
Forced : No

Агент особого назначения-2,3,4

General
Unique ID : 186645578597035590810510244712166609126 (0x8C6AA18166A22BF7BD838290035E50E6)
Complete name : Агент особого назначения-2 (01 сер.).mkv
Format : Matroska
Format version : Version 2
File size : 574 MiB
Duration : 44 min 43 s
Overall bit rate : 1 794 kb/s
Encoded date : UTC 2018-07-14 14:07:45
Writing application : mkvmerge v7.8.0 ('River Man') 32bit built on Apr 3 2015 12:11:22
Writing library : libebml v1.3.1 + libmatroska v1.4.2
Video
ID : 1
Format : AVC
Format/Info : Advanced Video Codec
Format profile : High@L3
Format settings : CABAC / 6 Ref Frames
Format settings, CABAC : Yes
Format settings, ReFrames : 6 frames
Codec ID : V_MPEG4/ISO/AVC
Duration : 44 min 43 s
Bit rate : 1 600 kb/s
Width : 720 pixels
Height : 432 pixels
Display aspect ratio : 16:9
Frame rate mode : Constant
Frame rate : 25.000 FPS
Color space : YUV
Chroma subsampling : 4:2:0
Bit depth : 8 bits
Scan type : Progressive
Bits/(Pixel*Frame) : 0.206
Stream size : 501 MiB (87%)
Writing library : x264 core 155 r2901 7d0ff22
Encoding settings : cabac=1 / ref=6 / deblock=1:0:0 / analyse=0x3:0x113 / me=umh / subme=8 / psy=1 / psy_rd=1.00:0.00 / mixed_ref=1 / me_range=24 / chroma_me=1 / trellis=1 / 8x8dct=1 / cqm=0 / deadzone=21,11 / fast_pskip=1 / chroma_qp_offset=-2 / threads=8 / lookahead_threads=1 / sliced_threads=0 / nr=0 / decimate=1 / interlaced=0 / bluray_compat=0 / stitchable=1 / constrained_intra=0 / bframes=6 / b_pyramid=2 / b_adapt=1 / b_bias=0 / direct=3 / weightb=1 / open_gop=0 / weightp=2 / keyint=250 / keyint_min=25 / scenecut=40 / intra_refresh=0 / rc_lookahead=40 / rc=2pass / mbtree=1 / bitrate=1600 / ratetol=1.0 / qcomp=0.60 / qpmin=0 / qpmax=69 / qpstep=4 / cplxblur=20.0 / qblur=0.5 / ip_ratio=1.40 / aq=1:1.00
Default : Yes
Forced : No
Audio
ID : 2
Format : AC-3
Format/Info : Audio Coding 3
Commercial name : Dolby Digital
Codec ID : A_AC3
Duration : 44 min 43 s
Bit rate mode : Constant
Bit rate : 192 kb/s
Channel(s) : 2 channels
Channel layout : L R
Sampling rate : 48.0 kHz
Frame rate : 31.250 FPS (1536 SPF)
Bit depth : 16 bits
Compression mode : Lossy
Stream size : 61.4 MiB (11%)
Service kind : Complete Main
Default : Yes
Forced : No

Скриншоты

Предыдущие и альтернативные раздачи
Скачать

Скачать бесплатно и на максимальной скорости!

Как скачивать? · Что такое торрент? · Рейтинг и ограничения




Вы не можете начинать темы
Вы не можете отвечать на сообщения
Вы не можете редактировать свои сообщения
Вы не можете удалять свои сообщения
Вы не можете голосовать в опросах
Вы не можете прикреплять файлы к сообщениям
Вы не можете скачивать файлы