Пёс / Сезон: 4 / Серии: 1-20 из 20 (Николай Каптан, Игорь Забара) [2018, Детектив, DVB]


by Boris G ®
23-Дек-2018 15:24

[Цитировать]

Пёс / Сезон: 4 / Серии: 1-20 из 20 (Николай Каптан, Игорь Забара) [2018, Детектив, DVB]

Пёс- Год выпуска: 2018
Производство: PRO-TV
Жанр: Детектив
Продолжительность: ~ 00:52:00
Субтитры: Украинские (не отключаемые)-Режиссёр: Николай Каптан, Игорь Забара-В ролях: Андрей Саминин, Никита Панфилов, Михаил Жонин, Ольга Олексий, Денис Роднянский, Светлана Зельбет, Ольга Морозова, Тарас Мельничук-Описание: Макс – алкоголик. Когда-то лучший сыщик в городе, Макс потерял все – работу, друзей, жену. У него остался единственный друг – Пес. После серии погонь, драк и перестрелок, Пес и Макс раскрыли тайну загадочного убийства. Макс с Псом снова стали детективами. Теперь каждый день начинается с того, что Пес и Макс пытаются выяснить, кто совершил преступление... И выяснить – кто из них лучший сыщик в городе!-Реклама: Нет-Сэмпл: http://multi-up.com/1214494-Качество: DVB - Серый1779
Формат: TS
Видео кодек: MPEG2
Аудио кодек: MP2
Видео: MPEG-2, ~ 2904 Кбит/с, 720x576@1024х576, 25,000 кадр/с
Аудио: МР2, 48.0 kHz, 2 ch, 192 Кбит/с-

MI

Общее
Идентификатор : 1 (0x1)
Полное имя : E:\Пес 4.(2018).DVB.Files-x\01.Пес.s04.(2018).DVB.by.Серый1779.Files-x.ts
Формат : MPEG-TS
Размер файла : 1,15 Гбайт
Продолжительность : 51 м. 27 с.
Режим общего битрейта : Переменный
Общий поток : 3191 Кбит/сек
Видео
Идентификатор : 1155 (0x483)
Идентификатор меню : 5 (0x5)
Формат : MPEG Video
Версия формата : Version 2
Профиль формата : Main@Main
Настройки формата : CustomMatrix / BVOP
Параметр BVOP формата : Да
Параметр матрицы формата : Выборочная
Параметр GOP формата : M=3, N=24
Структура изображения : Frame
Идентификатор кодека : 2
Продолжительность : 51 м. 27 с.
Вид битрейта : Переменный
Битрейт : 2904 Кбит/сек
Максимальный битрейт : 15,0 Мбит/сек
Ширина : 720 пикселей
Высота : 576 пикселей
Соотношение сторон : 16:9
Частота кадров : 25,000 кадров/сек
Стандарт вещания : PAL
Цветовое пространство : YUV
Субдискретизация насыщенности : 4:2:0
Битовая глубина : 8 бит
Тип развёртки : Чересстрочная
Порядок развёртки : Верхнее поле первое
Метод сжатия : С потерями
Бит/(Пиксели*Кадры) : 0.280
Временной код первого кадра : 00:00:00:00
Оригинал временного кода : Group of pictures header
GOP, открыто/закрыто : Открыто
GOP, открыто/закрыто на первом кадре : Закрыто
Размер потока : 1,04 Гбайт (91%)
Аудио
Идентификатор : 1156 (0x484)
Идентификатор меню : 5 (0x5)
Формат : MPEG Audio
Версия формата : Version 1
Профиль формата : Layer 2
Идентификатор кодека : 3
Продолжительность : 51 м. 27 с.
Вид битрейта : Постоянный
Битрейт : 128 Кбит/сек
Каналы : 2 канала
Частота : 48,0 КГц
Частота кадров : 41,667 кадра/сек (1152 SPF)
Метод сжатия : С потерями
Размер потока : 47,1 Мбайт (4%)
Язык : English
-

Скриншоты

-

Внимание! Раздача ведётся путём добавления новых серий

Внимание! Раздача ведётся путём добавления новых серий; при каждом добавлении создаётся новый торрент. Чтобы начать докачку новой серии, пользователям необходимо сделать следующее:
(1) остановить скачивание,
(2) удалить старый торрент у себя из клиента (старые серии удалять не надо),
(3) скачать новый торрент и запустить его у себя в клиенте вместо старого, при этом указать клиенту путь в старую папку куда и должно происходить скачивание новых серий.
Ваш клиент при этом должен произвести хеширование (проверку) старой папки (если не производит сам - помогите ему сделать это), и будет докачивать только те серии которых у вас ещё нет. Старые серии при этом не удаляются, а продолжают раздаваться!
Eсли вы уже удалили старые серии, то предотвратить повторную закачку старых серий можно, отжав галочку в соответствующих местах при запуске нового торрента. По возможности, желательно не удалять старые серии как можно дольше чтобы релизёр не столько продолжал раздавать старые серии, а смог сконцентрироваться на новых.
-Предыдущие и альтернативные раздачи
Скачать

Скачать бесплатно и на максимальной скорости!

Как скачивать? · Что такое торрент? · Рейтинг и ограничения




Вы не можете начинать темы
Вы не можете отвечать на сообщения
Вы не можете редактировать свои сообщения
Вы не можете удалять свои сообщения
Вы не можете голосовать в опросах
Вы не можете прикреплять файлы к сообщениям
Вы не можете скачивать файлы