Эксперт / Серии: 1-2 из 2 (Владимир Фатьянов) [2018, криминал, WEBRip]


by Boris G ®
23-Dec-2018 15:24

[Quote]

Эксперт / Серии: 1-2 из 2 (Владимир Фатьянов) [2018, криминал, WEBRip]

Эксперт
Год выпуска: 2018
Производство: ООО Киностудия "Кит", ООО Эн Джи Продакшн
Жанр: криминал
Продолжительность: ~00:48:00 серия
Субтитры: нет
Режиссёр: Владимир Фатьянов
В ролях: Павел Чинарёв, Александра Богданова, Игорь Лифанов, Андрей Стоянов, Тимур Ефременков, Станислав Эрдлей, Александр Кузнецов, Татьяна Шумова, Климентий Бердинский
Описание: Андрей работает экспертом по безопасности, ведет свободный холостой образ жизни и оптимистично смотрит в будущее. Но однажды спокойная и размеренная жизнь рушится раз и навсегда — ему вменяют обвинение в ограблении крупного банка, к чьей системе безопасности он имел отношение. Следствие оказывается коротким и не в пользу Андрея: он оказывается за решеткой. Чтобы доказать свою невиновность, Андрей должен найти настоящих зачинщиков ограбления, а для этого ему необходимо оказаться на свободе. Бывший эксперт по безопасности принимает решение совершить побег в компании с уголовником…

Реклама: Нет.
Кинопоиск
Все раздачи сериала
Sample
Качество: WEBRip - Files-x
Формат: AVI
Видео кодек: XviD
Аудио кодек: AC3
Видео: 720x368 (1.96:1), 25 fps, XviD build 73 ~1499 kbps avg, 0.23 bit/pixel
Аудио: 48.0 kHz, AC3 Dolby Digital, 2/0 (L,R) ch, ~ 192 kbps

MI

General
Complete name : D:\Эксперт (2018)..WEB-DLRip.Files-x\1-я серия _Эксперт (2018)..WEB-DLRip.Files-x.avi
Format : AVI
Format/Info : Audio Video Interleave
File size : 594 MiB
Duration : 48 min 50 s
Overall bit rate : 1 702 kb/s
Writing application : VirtualDubMod 1.5.10.3 | www.virtualdub-fr.org || (build 2550/release)
Writing library : VirtualDubMod build 2550/release
Video
ID : 0
Format : MPEG-4 Visual
Format profile : Advanced Simple@L5
Format settings : BVOP1 / Custom Matrix
Format settings, BVOP : 1
Format settings, QPel : No
Format settings, GMC : No warppoints
Format settings, Matrix : Custom
Codec ID : XVID
Codec ID/Hint : XviD
Duration : 48 min 50 s
Bit rate : 1 500 kb/s
Width : 720 pixels
Height : 368 pixels
Display aspect ratio : 1.957
Frame rate : 25.000 FPS
Color space : YUV
Chroma subsampling : 4:2:0
Bit depth : 8 bits
Scan type : Progressive
Compression mode : Lossy
Bits/(Pixel*Frame) : 0.226
Stream size : 524 MiB (88%)
Writing library : XviD 73
Audio
ID : 1
Format : AC-3
Format/Info : Audio Coding 3
Codec ID : 2000
Duration : 48 min 50 s
Bit rate mode : Constant
Bit rate : 192 kb/s
Channel(s) : 2 channels
Channel positions : Front: L R
Sampling rate : 48.0 kHz
Frame rate : 31.250 FPS (1536 SPF)
Bit depth : 16 bits
Compression mode : Lossy
Stream size : 67.1 MiB (11%)
Alignment : Split accross interleaves
Interleave, duration : 40 ms (1.00 video frame)
Interleave, preload duratio : 500 ms
Service kind : Complete Main

Скриншоты


Download

Download free and at maximum speed!

How to Download? · What is a torrent? · Ratings and Limitations




You cannot post new topics in this forum
You cannot reply to topics in this forum
You cannot edit your posts in this forum
You cannot delete your posts in this forum
You cannot vote in polls in this forum
You cannot attach files in this forum
You cannot download files in this forum