Эксперт / Серии: 1-2 из 2 (Владимир Фатьянов) [2018, криминал, WEBRip 1080p]


by Boris G ®
23-Дек-2018 15:24

[Цитировать]

Эксперт / Серии: 1-2 из 2 (Владимир Фатьянов) [2018, криминал, WEBRip 1080p]

Эксперт
Год выпуска: 2018
Производство: ООО Киностудия "Кит", ООО Эн Джи Продакшн
Жанр: криминал
Продолжительность: ~00:48:00 серия
Субтитры: нет
Режиссёр: Владимир Фатьянов
В ролях: Павел Чинарёв, Александра Богданова, Игорь Лифанов, Андрей Стоянов, Тимур Ефременков, Станислав Эрдлей, Александр Кузнецов, Татьяна Шумова, Климентий Бердинский
Описание: Андрей работает экспертом по безопасности, ведет свободный холостой образ жизни и оптимистично смотрит в будущее. Но однажды спокойная и размеренная жизнь рушится раз и навсегда — ему вменяют обвинение в ограблении крупного банка, к чьей системе безопасности он имел отношение. Следствие оказывается коротким и не в пользу Андрея: он оказывается за решеткой. Чтобы доказать свою невиновность, Андрей должен найти настоящих зачинщиков ограбления, а для этого ему необходимо оказаться на свободе. Бывший эксперт по безопасности принимает решение совершить побег в компании с уголовником…

Реклама: Нет.
Кинопоиск
Все раздачи сериала
Sample
Качество: WEBRip 1080p - Nikolspup
Формат: MKV
Видео кодек: H.264
Аудио кодек: AC3
Видео: MPEG4 AVC Video, H264, 16:9, 1920x1080, 25 fps, ~6000 kbps, 0.116 bit/pixel
Аудио: AC3 Dolby Digital, 48.0 kHz, 2/0 (L,R) ch, 192 kbps

MI

General
Unique ID : 183022217267225237883059042544805101769 (0x89B0CBFFD2DCB0EA8E9FDFF7E6CA40C9)
Complete name : D:\Expert.2017.WEB-DL.(1080p).Nikolspup\Expert.(01.seriya.iz.02).2017.WEB-DL.(1080p).Nikolspup.mkv
Format : Matroska
Format version : Version 4 / Version 2
File size : 2.11 GiB
Duration : 48 min 50 s
Overall bit rate mode : Constant
Overall bit rate : 6 173 kb/s
Encoded date : UTC 2018-11-09 21:14:57
Writing application : mkvmerge v7.8.0 ('River Man') 32bit built on Mar 27 2015 16:18:02
Writing library : libebml v1.3.1 + libmatroska v1.4.2
Video
ID : 1
Format : AVC
Format/Info : Advanced Video Codec
Format profile : High@L4.1
Format settings : 2 Ref Frames
Format settings, CABAC : No
Format settings, ReFrames : 2 frames
Codec ID : V_MPEG4/ISO/AVC
Duration : 48 min 50 s
Bit rate mode : Constant
Bit rate : 6 000 kb/s
Width : 1 920 pixels
Height : 1 080 pixels
Display aspect ratio : 16:9
Frame rate mode : Constant
Frame rate : 25.000 FPS
Standard : PAL
Color space : YUV
Chroma subsampling : 4:2:0
Bit depth : 8 bits
Scan type : Progressive
Bits/(Pixel*Frame) : 0.116
Stream size : 2.04 GiB (97%)
Default : Yes
Forced : No
Color range : Limited
Color primaries : BT.709
Transfer characteristics : BT.709
Matrix coefficients : BT.709
Audio
ID : 2
Format : AC-3
Format/Info : Audio Coding 3
Codec ID : A_AC3
Duration : 48 min 50 s
Bit rate mode : Constant
Bit rate : 192 kb/s
Channel(s) : 2 channels
Channel positions : Front: L R
Sampling rate : 48.0 kHz
Frame rate : 31.250 FPS (1536 SPF)
Bit depth : 16 bits
Compression mode : Lossy
Stream size : 67.1 MiB (3%)
Language : Russian
Service kind : Complete Main
Default : Yes
Forced : No

Скриншоты


Скачать

Скачать бесплатно и на максимальной скорости!

Как скачивать? · Что такое торрент? · Рейтинг и ограничения




Вы не можете начинать темы
Вы не можете отвечать на сообщения
Вы не можете редактировать свои сообщения
Вы не можете удалять свои сообщения
Вы не можете голосовать в опросах
Вы не можете прикреплять файлы к сообщениям
Вы не можете скачивать файлы