Дуэт по праву / Серии: 1-18 из 18 (Владимир Мельниченко, Михаил Журавкин) [2018, мелодрама, детектив, WEBRip]


by Boris G ®
23-Дек-2018 15:24

[Цитировать]

Дуэт по праву / Серии: 1-18 из 18 (Владимир Мельниченко, Михаил Журавкин) [2018, мелодрама, детектив, WEBRip]

Дуэт по праву
Год выпуска: 2018
Производство: КультМедиа
Жанр: мелодрама, детектив
Продолжительность: ~00:48:00 серия
Субтитры: нет
Режиссёр: Владимир Мельниченко, Михаил Журавкин
В ролях: Валерия Шкирандо, Вера Шпак, Алексей Вакулов, Александр Никитин, Эльдар Калимулин, Андрей Бутин, Светлана Рубан, Екатерина Кульчицкая, Павел Мисаилов, Галина Коньшина, Сергей Колбинцев, Юлия Бедарева, Александр Лырчиков, Екатерина Гудина, Юлия Дробот
Описание: В Следственный комитет маленького провинциального городка переводится из Москвы новая сотрудница – майор Татьяна Титова. В Москве она была следователем по особо важным делам. Но негласная директива предписывает взять Титову на службу лишь рядовым оперативником. Странное назначение порождает массу слухов в Следственном комитете, особенно учитывая, что по неизвестным причинам вся информация о личной жизни Титовой засекречена и исключена из ее дела. Однако ко всеобщему удивлению, Титова соглашается на эту должность. Ей приходится в срочном порядке вливаться в работу отдела, искать общий язык с лейтенантом Александром Рябых – своим новым напарником, экспертом-криминалистом циником Гаевским и добродушным судмедэкспертом Михаилом Тучковым. Но главное – с новой начальницей майором Аллой Давыдовой – своей лучшей подругой, с которой они не разговаривали много лет… Благодаря профессиональному чутью и огромному опыту Татьяне и Алле вместе удается виртуозно распутывать головоломки и раскрывать преступления. Вот только Аллу очень озадачивает возвращение Татьяны. Она подозревает, что истинные мотивы бывшей подруги далеки от профессиональных, и на самом деле она вернулась потому, что все еще любит Андрея … ее мужа…

Реклама: Нет.
Кинопоиск
Все раздачи сериала
Sample
Качество: WEBRip - Files-x
Формат: AVI
Видео кодек: XviD
Аудио кодек: AC3
Видео: 720x400 (1.80:1), 25 fps, XviD build 73 ~1500 kbps avg, 0.208 bit/pixel
Аудио: 48.0 kHz, AC3 Dolby Digital, 2/0 (L,R) ch, ~ 192 kbps

Внимание! Раздача ведётся путём добавления новых серий

Раздача ведётся путём добавления новых серий, при каждом добавлении создаётся новый торрент. Чтобы начать докачку новой серии, пользователям необходимо сделать следующее:
- Остановить скачивание.
- Удалить старый торрент у себя из клиента (старые серии удалять не надо).
- Скачать новый торрент и запустить его у себя в клиенте вместо старого, при этом указать клиенту путь в старую папку куда и должно происходить скачивание новых серий.
Ваш клиент при этом должен произвести хеширование (проверку) старой папки (если не производит сам - помогите ему сделать это), и будет докачивать только те серии которых у вас ещё нет. Старые серии при этом не удаляются, а продолжают раздаваться!
Если вы уже удалили старые серии, то предотвратить повторную закачку старых серий можно, отжав галочку в соответствующих местах при запуске нового торрента. По возможности, желательно не удалять старые серии как можно дольше, чтобы релизер не столько продолжал раздавать старые серии, а смог сконцентрироваться на новых.

MI

General
Complete name : D:\Дуэт по праву (2018)..WEB-DLRip.Files-x\01.Дуэт по праву (2018)..WEB-DLRip.Files-x.avi
Format : AVI
Format/Info : Audio Video Interleave
File size : 584 MiB
Duration : 48 min 0 s
Overall bit rate : 1 702 kb/s
Writing application : VirtualDubMod 1.5.10.3 | www.virtualdub-fr.org || (build 2550/release)
Writing library : VirtualDubMod build 2550/release
Video
ID : 0
Format : MPEG-4 Visual
Format profile : Advanced Simple@L5
Format settings : BVOP1 / Custom Matrix
Format settings, BVOP : 1
Format settings, QPel : No
Format settings, GMC : No warppoints
Format settings, Matrix : Custom
Codec ID : XVID
Codec ID/Hint : XviD
Duration : 48 min 0 s
Bit rate : 1 500 kb/s
Width : 720 pixels
Height : 400 pixels
Display aspect ratio : 16:9
Frame rate : 25.000 FPS
Color space : YUV
Chroma subsampling : 4:2:0
Bit depth : 8 bits
Scan type : Progressive
Compression mode : Lossy
Bits/(Pixel*Frame) : 0.208
Stream size : 515 MiB (88%)
Writing library : XviD 73
Audio
ID : 1
Format : AC-3
Format/Info : Audio Coding 3
Codec ID : 2000
Duration : 48 min 0 s
Bit rate mode : Constant
Bit rate : 192 kb/s
Channel(s) : 2 channels
Channel positions : Front: L R
Sampling rate : 48.0 kHz
Frame rate : 31.250 FPS (1536 SPF)
Bit depth : 16 bits
Compression mode : Lossy
Stream size : 65.9 MiB (11%)
Alignment : Split accross interleaves
Interleave, duration : 40 ms (1.00 video frame)
Interleave, preload duratio : 500 ms
Service kind : Complete Main

Скриншоты


Скачать

Скачать бесплатно и на максимальной скорости!

Как скачивать? · Что такое торрент? · Рейтинг и ограничения




Вы не можете начинать темы
Вы не можете отвечать на сообщения
Вы не можете редактировать свои сообщения
Вы не можете удалять свои сообщения
Вы не можете голосовать в опросах
Вы не можете прикреплять файлы к сообщениям
Вы не можете скачивать файлы