Зинка-москвичка / Серии: 1-4 из 4 (Кира Ангелина) [2018, мелодрама, WEBRip]


by Boris G ®
23-Дек-2018 15:24

[Цитировать]

Зинка-москвичка / Серии: 1-4 из 4 (Кира Ангелина) [2018, мелодрама, WEBRip]

Зинка-москвичка
Год выпуска: 2018
Производство: Кинокомпания "Русское"
Жанр: мелодрама
Продолжительность: ~00:45:00 серия
Субтитры: нет
Режиссёр: Кира Ангелина
В ролях: Анна Якунина, Константин Адаев, Сергей Ланбамин, Сергей Калашников, Мария Свирид, Кирилл Бухтияров
Описание: Зина родилась в глухой сибирской деревне. Прозвище «москвичка» она получила благодаря отцу — видному ученому из столицы, которого след простыл, а кличка осталась. Зина вышла замуж, родила дочь. Ее муж погиб в тайге, нарвавшись на медведя. Женщина одна воспитывает ребенка и работает на ферме, сводя концы с концами. Но страшный пожар стирает с лица земли ее родную деревушку. Беда не приходит одна: в Москве умирает отец и оставляет Зине солидное наследство. Удастся ли ей, простой женщине из глубинки, привыкшей просыпаться под крик петуха и жить от сенокоса до надоя, обосноваться в столице и разбить свой огород среди небоскребов?

Реклама: Нет.
Кинопоиск
Все раздачи сериала
Sample
Качество: WEBRip
Формат: AVI
Видео кодек: XviD
Аудио кодек: AC3
Видео: 720x400 (1.80:1), 25 fps, XviD build 73 ~1700 kbps avg, 0.236 bit/pixel
Аудио: 48.0 kHz, AC3 Dolby Digital, 2/0 (L,R) ch, ~ 192 kbps

MI

General
Complete name : D:\Зинка-москвичка 2018\01.Зинка-москвичка.2018.WEB-DLRip.avi
Format : AVI
Format/Info : Audio Video Interleave
File size : 1.20 GiB
Duration : 1 h 30 min
Overall bit rate : 1 898 kb/s
Writing application : VirtualDubMod 1.5.10.3 | www.virtualdub-fr.org || (build 2550/release)
Writing library : VirtualDubMod build 2550/release
Video
ID : 0
Format : MPEG-4 Visual
Format profile : Advanced Simple@L5
Format settings : BVOP1
Format settings, BVOP : 1
Format settings, QPel : No
Format settings, GMC : No warppoints
Format settings, Matrix : Default (MPEG)
Codec ID : XVID
Codec ID/Hint : XviD
Duration : 1 h 30 min
Bit rate : 1 697 kb/s
Width : 720 pixels
Height : 400 pixels
Display aspect ratio : 16:9
Frame rate : 25.000 FPS
Color space : YUV
Chroma subsampling : 4:2:0
Bit depth : 8 bits
Scan type : Progressive
Compression mode : Lossy
Bits/(Pixel*Frame) : 0.236
Stream size : 1.07 GiB (89%)
Writing library : XviD 73
Audio
ID : 1
Format : AC-3
Format/Info : Audio Coding 3
Codec ID : 2000
Duration : 1 h 30 min
Bit rate mode : Constant
Bit rate : 192 kb/s
Channel(s) : 2 channels
Channel positions : Front: L R
Sampling rate : 48.0 kHz
Frame rate : 31.250 FPS (1536 SPF)
Bit depth : 16 bits
Compression mode : Lossy
Stream size : 125 MiB (10%)
Alignment : Split accross interleaves
Interleave, duration : 40 ms (1.00 video frame)
Interleave, preload duratio : 500 ms
Service kind : Complete Main

Скриншоты


Скачать

Скачать бесплатно и на максимальной скорости!

Как скачивать? · Что такое торрент? · Рейтинг и ограничения




Вы не можете начинать темы
Вы не можете отвечать на сообщения
Вы не можете редактировать свои сообщения
Вы не можете удалять свои сообщения
Вы не можете голосовать в опросах
Вы не можете прикреплять файлы к сообщениям
Вы не можете скачивать файлы