Годунов / Серии: 1-8 из 8 (Алексей Андрианов) [2018, драма, история, HDTV 1080i]


by Boris G ®
23-Дек-2018 15:24

[Цитировать]

Годунов / Серии: 1-8 из 8 (Алексей Андрианов) [2018, драма, история, HDTV 1080i]

Годунов
Год выпуска: 2018
Производство: Главкино
Жанр: драма, история
Продолжительность: ~00:50:00 серия
Субтитры: нет
Режиссёр: Алексей Андрианов
В ролях: Сергей Безруков, Светлана Ходченкова, Сергей Маковецкий, Виктор Сухоруков, Александр Устюгов, Мария Андреева, Андрей Мерзликин, Анна Михалкова, Фёдор Лавров, Владимир Стеклов, Ирина Пегова, Антон Кузнецов, Анна Ковальчук, Александр Горбатов, Евгений Цыганов, Александр Ильин, Юрий Беляев, Лев Прыгунов, Артём Алексеев, Александр Семчев, Евгений Ткачук, Борис Плотников, Сергей Никоненко, Станислав Говорухин, Юрий Колокольников, Екатерина Васильева, Диана Чечель, Юрий Коноплянников, Клим Бердинский, Лев Бердинский, Владимир Скробан, Ярослав Ефременко, Андрюс Паулавичюс, Вайдотас Мартинайтис, Ремигиюс Сабулис, Лаймутис Седжюс, Альбинас Келярис, Александр Пашутин, Николай Козак, Борис Клюев
Описание: XVI век. Один из самых сложных и противоречивых периодов в истории страны. Тревожная и героическая эпоха Российского царства. Борьба за трон и неразделенная любовь, предательство и интриги, страсти и испытания эпохи – ставка в которой больше, чем жизнь. На кону – будущее Российского государства. В основе сериала реальные исторические события, охватывающие период со времен окончания правления Ивана Грозного и до восшествия на русский престол Михаила Федоровича Романова – первого царя из династии Романовых. В центре беспрецедентного исторического проекта – судьба рода Годуновых. Какую роль сыграют в этой драме сам Борис Годунов, его жена Мария Годунова, сестра Ирина и дочь Ксения, зрителям только предстоит узнать. Впереди – настоящие открытия! В Московском Кремле начинается отсчет последних дней правления Иоанна Грозного. Кто займет место на царском троне, как сложится судьба целого народа, кто способен провести Россию через Смутное время, и как любовь изменяет путь истории. Борис Годунов – бывший опричник и первый на Руси избранный царь. Как и почему, не будучи выходцем из знатного рода и не имея особого состояния, он смог пробиться на самый верх и стать сначала фактическим правителем России, а затем взойти на царский престол…

Реклама: Нет.
Кинопоиск
Все раздачи сериала
Sample
Качество: HDTV 1080i - daboen
Формат: TS
Видео кодек: AVC
Аудио кодек: MP2
Видео: MPEG4 AVC Video, H264, 16:9, 1920x1080, 25 fps, ~7000 kbps, 0.136 bit/pixel
Аудио: MP2, 2 ch, 192 kbps, 16 bits, 48.0 KHz

Внимание! Раздача ведётся путём добавления новых серий

Раздача ведётся путём добавления новых серий, при каждом добавлении создаётся новый торрент. Чтобы начать докачку новой серии, пользователям необходимо сделать следующее:
- Остановить скачивание.
- Удалить старый торрент у себя из клиента (старые серии удалять не надо).
- Скачать новый торрент и запустить его у себя в клиенте вместо старого, при этом указать клиенту путь в старую папку куда и должно происходить скачивание новых серий.
Ваш клиент при этом должен произвести хеширование (проверку) старой папки (если не производит сам - помогите ему сделать это), и будет докачивать только те серии которых у вас ещё нет. Старые серии при этом не удаляются, а продолжают раздаваться!
Если вы уже удалили старые серии, то предотвратить повторную закачку старых серий можно, отжав галочку в соответствующих местах при запуске нового торрента. По возможности, желательно не удалять старые серии как можно дольше, чтобы релизер не столько продолжал раздавать старые серии, а смог сконцентрироваться на новых.

MI

General
ID : 1 (0x1)
Complete name : D:\Godunov.2018.HDTV.1080i\Godunov.01.2018.HDTV.1080i.ts
Format : MPEG-TS
File size : 2.70 GiB
Duration : 50 min 34 s
Overall bit rate mode : Variable
Overall bit rate : 7 646 kb/s
Video
ID : 2911 (0xB5F)
Menu ID : 1192 (0x4A8)
Format : AVC
Format/Info : Advanced Video Codec
Format profile : High@L4
Format settings : CABAC / 4 Ref Frames
Format settings, CABAC : Yes
Format settings, ReFrames : 4 frames
Codec ID : 27
Duration : 50 min 34 s
Bit rate : 7 075 kb/s
Width : 1 920 pixels
Height : 1 080 pixels
Display aspect ratio : 16:9
Frame rate : 25.000 FPS
Color space : YUV
Chroma subsampling : 4:2:0
Bit depth : 8 bits
Scan type : MBAFF
Scan type, store method : Interleaved fields
Scan order : Top Field First
Bits/(Pixel*Frame) : 0.136
Stream size : 2.50 GiB (93%)
Audio
ID : 2912 (0xB60)
Menu ID : 1192 (0x4A8)
Format : MPEG Audio
Format version : Version 1
Format profile : Layer 2
Format settings : Joint stereo / Intensity Stereo + MS Stereo
Codec ID : 3
Duration : 50 min 34 s
Bit rate mode : Constant
Bit rate : 192 kb/s
Channel(s) : 2 channels
Sampling rate : 48.0 kHz
Frame rate : 41.667 FPS (1152 SPF)
Compression mode : Lossy
Delay relative to video : -40 ms
Stream size : 69.5 MiB (3%)
Language : Russian

Скриншоты


Скачать

Скачать бесплатно и на максимальной скорости!

Как скачивать? · Что такое торрент? · Рейтинг и ограничения




Вы не можете начинать темы
Вы не можете отвечать на сообщения
Вы не можете редактировать свои сообщения
Вы не можете удалять свои сообщения
Вы не можете голосовать в опросах
Вы не можете прикреплять файлы к сообщениям
Вы не можете скачивать файлы