Годунов / Серии: 1-8 из 8 (Алексей Андрианов) [2018, драма, история, SATRip]


by Boris G ®
23-Дек-2018 15:24

[Цитировать]

Годунов / Серии: 1-8 из 8 (Алексей Андрианов) [2018, драма, история, SATRip]

Годунов-- Год выпуска: 2018
Производство: Главкино
Жанр: драма, история
Продолжительность: 00:50:00
Субтитры: нет
Режиссёр: Алексей Андрианов
В ролях: Сергей Безруков, Светлана Ходченкова, Сергей Маковецкий, Виктор Сухоруков, Александр Устюгов, Мария Андреева, Андрей Мерзликин, Анна Михалкова, Фёдор Лавров, Владимир Стеклов, Ирина Пегова, Антон Кузнецов, Анна Ковальчук, Александр Горбатов (II), Евгений Цыганов, Александр Ильин, Юрий Беляев, Лев Прыгунов, Артём Алексеев (II), Александр Семчев, Евгений Ткачук, Борис Плотников, Сергей Никоненко, Станислав Говорухин, Юрий Колокольников, Екатерина Васильева, Диана Чечель, Юрий Коноплянников, Клим Бердинский, Лев Бердинский, Владимир Скробан, Ярослав Ефременко, Андрюс Паулавичюс, Вайдотас Мартинайтис, Ремигиюс Сабулис, Лаймутис Седжюс, Альбинас Келярис, Александр Пашутин, Николай Козак, Борис Клюев
Описание: XVI век. Один из самых сложных и противоречивых периодов в истории страны. Тревожная и героическая эпоха Российского царства. Борьба за трон и неразделенная любовь, предательство и интриги, страсти и испытания эпохи - ставка в которой больше, чем жизнь. На кону - будущее Российского государства.В основе сериала реальные исторические события, охватывающие период со времен окончания правления Ивана Грозного и до восшествия на русский престол Михаила Федоровича Романова - первого царя из династии Романовых.
В центре беспрецедентного исторического проекта - судьба рода Годуновых. Какую роль сыграют в этой драме сам Борис Годунов, его жена Мария Годунова, сестра Ирина и дочь Ксения, зрителям только предстоит узнать. Впереди - настоящие открытия!
В Московском Кремле начинается отсчет последних дней правления Иоанна Грозного. Кто займет место на царском троне, как сложится судьба целого народа, кто способен провести Россию через Смутное время, и как любовь изменяет путь истории.-Сэмпл: http://multi-up.com/1214024-Качество: SATRip / 25Kuzmich
Формат: AVI
Видео кодек: XviD
Аудио кодек: MP3
Видео: 720x400 (16:9), 25.000 fps, XviD, 1650 Kbps, 0.22 bit/pixel
Аудио: 48 kHz, MP3, 2/0 (L,R) ch, 192.00 kbps-Реклама: Нет-

MI

General
Complete name :Downloads\Godunov.2018.XviD.SATRip.25Kuzmich\Godunov.e01.XviD.SATRip.25Kuzmich.avi
Format : AVI
Format/Info : Audio Video Interleave
File size : 668 MiB
Duration : 50mn 27s
Overall bit rate : 1 852 Kbps
Writing application : VirtualDubMod 1.5.10.3 | www.virtualdub-fr.org || (build 2550/release)
Writing library : VirtualDubMod build 2550/release
Video #0
ID : 0
Format : MPEG-4 Visual
Format profile : Advanced Simple@L5
Format settings, BVOP : 1
Format settings, QPel : No
Format settings, GMC : No warppoints
Format settings, Matrix : Default (MPEG)
Codec ID : XVID
Codec ID/Hint : XviD
Duration : 50mn 27s
Bit rate : 1 650 Kbps
Width : 720 pixels
Height : 400 pixels
Display aspect ratio : 16:9
Frame rate : 25.000 fps
Color space : YUV
Chroma subsampling : 4:2:0
Bit depth : 8 bits
Scan type : Progressive
Compression mode : Lossy
Bits/(Pixel*Frame) : 0.229
Stream size : 595 MiB (89%)
Writing library : XviD 1.2.1 (UTC 2008-12-04)
Audio #1
ID : 1
Format : MPEG Audio
Format version : Version 1
Format profile : Layer 3
Mode : Joint stereo
Mode extension : MS Stereo
Codec ID : 55
Codec ID/Hint : MP3
Duration : 50mn 27s
Bit rate mode : Constant
Bit rate : 192 Kbps
Channel(s) : 2 channels
Sampling rate : 48.0 KHz
Compression mode : Lossy
Stream size : 69.3 MiB (10%)
Alignment : Aligned on interleaves
Interleave, duration : 40 ms (1.00 video frame)
Interleave, preload duration : 504 ms
Writing library : LAME3.99r
Encoding settings : -m j -V 4 -q 2 -lowpass 18.6 -b 192

Скриншоты

Внимание! Раздача ведётся путём добавления новых серий:

(1) остановить скачивание,
(2) удалить старый торрент у себя из клиента (старые серии удалять не надо),
(3) скачать новый торрент и запустить его у себя в клиенте вместо старого, при этом указать клиенту путь в старую папку куда и должно происходить скачивание новых серий.
Ваш клиент при этом должен произвести хеширование (проверку) старой папки (если не производит сам - помогите ему сделать это), и будет докачивать только те серии которых у вас ещё нет. Старые серии при этом не удаляются, а продолжают раздаваться!
Eсли вы уже удалили старые серии, то предотвратить повторную закачку старых серий можно, отжав галочку в соответсвующих местах при запуске нового торрента. По возможности, желательно не удалять старые серии как можно дольше чтобы релизёр не столько продолжал раздавать старые серии, а смог сконцентрироваться на новых
.
Предыдущие и альтернативные раздачи
Скачать

Скачать бесплатно и на максимальной скорости!

Как скачивать? · Что такое торрент? · Рейтинг и ограничения




Вы не можете начинать темы
Вы не можете отвечать на сообщения
Вы не можете редактировать свои сообщения
Вы не можете удалять свои сообщения
Вы не можете голосовать в опросах
Вы не можете прикреплять файлы к сообщениям
Вы не можете скачивать файлы