Моя любимая свекровь. Московские каникулы / Сезон: 3 / Серии: 1-4 из 4 (Филипп Коршунов) [2018, мелодрама, комедия, WEBRip-AVC]


by Boris G ®
23-Дек-2018 15:24

[Цитировать]

Моя любимая свекровь. Московские каникулы / Сезон: 3 / Серии: 1-4 из 4 (Филипп Коршунов) [2018, мелодрама, комедия, WEBRip-AVC]

Моя любимая свекровь. Московские каникулы
Год выпуска: 2018
Производство: Маурис Филм
Жанр: мелодрама, комедия
Продолжительность: ~00:46:00 серия
Субтитры: нет
Режиссёр: Филипп Коршунов
В ролях: Евгения Дмитриева, Константин Соловьев, Марина Дюжева, Ивар Калныньш, Галина Петрова, Владимир Стеклов, Владимир Носик, Наталья Хорохорина, Игорь Пазыч, Антонина Дивина
Описание: В честь годовщины свадьбы Таня и Иван решили устроить московские каникулы. Евгению предложили место в хорошей клинике, а Нику пригласили на кастинг в мюзикл. Грандиозные планы и у бабушки Антонины Тарасовны, решившей, что Ванечка непременно должен стать кадетом. В столице их ждут незабываемые приключения.

Реклама: Нет.
Кинопоиск
Все раздачи сериала
Sample
Качество: WEBRip-AVC - Серый1779
Формат: MKV
Видео кодек: H.264
Аудио кодек: AC3
Видео: MPEG4 AVC Video, H264, 16:9, 1024x576, 25 fps, ~1600 kbps, 0.109 bit/pixel
Аудио: AC3 Dolby Digital, 44.1 kHz, 2/0 (L,R) ch, 192 kbps

MI

General
Unique ID : 171537508573791948650767892037566213145 (0x810CEC24AFA175F4B8DD0DB188642C19)
Complete name : D:\Моя любимая свекровь.s03.(2018).WEB-DLRip.(AVC).Files-x\01.Моя любимая свекровь.s03.(2018).WEB-DLRip.(AVC).by.Серый1779.Files-x.mkv
Format : Matroska
Format version : Version 2
File size : 600 MiB
Duration : 46 min 44 s
Overall bit rate : 1 794 kb/s
Encoded date : UTC 2018-11-04 23:29:31
Writing application : mkvmerge v7.8.0 ('River Man') 32bit built on Apr 3 2015 12:11:22
Writing library : libebml v1.3.1 + libmatroska v1.4.2
Video
ID : 1
Format : AVC
Format/Info : Advanced Video Codec
Format profile : High@L4.1
Format settings : CABAC / 9 Ref Frames
Format settings, CABAC : Yes
Format settings, ReFrames : 9 frames
Codec ID : V_MPEG4/ISO/AVC
Duration : 46 min 45 s
Bit rate : 1 600 kb/s
Width : 1 024 pixels
Height : 576 pixels
Display aspect ratio : 16:9
Frame rate mode : Constant
Frame rate : 25.000 FPS
Color space : YUV
Chroma subsampling : 4:2:0
Bit depth : 8 bits
Scan type : Progressive
Bits/(Pixel*Frame) : 0.109
Stream size : 524 MiB (87%)
Writing library : x264 core 146 r2538 121396c
Encoding settings : cabac=1 / ref=9 / deblock=1:-2:-1 / analyse=0x3:0x133 / me=umh / subme=9 / psy=1 / psy_rd=1.00:0.15 / mixed_ref=1 / me_range=32 / chroma_me=1 / trellis=2 / 8x8dct=1 / cqm=0 / deadzone=21,11 / fast_pskip=0 / chroma_qp_offset=-3 / threads=18 / lookahead_threads=3 / sliced_threads=0 / nr=0 / decimate=1 / interlaced=0 / bluray_compat=0 / constrained_intra=0 / bframes=9 / b_pyramid=2 / b_adapt=2 / b_bias=0 / direct=1 / weightb=1 / open_gop=0 / weightp=2 / keyint=250 / keyint_min=25 / scenecut=40 / intra_refresh=0 / rc=2pass / mbtree=0 / bitrate=1600 / ratetol=1.0 / qcomp=0.60 / qpmin=0 / qpmax=69 / qpstep=4 / cplxblur=20.0 / qblur=0.5 / ip_ratio=1.40 / pb_ratio=1.30 / aq=2:1.00
Default : Yes
Forced : No
Color range : Limited
Color primaries : BT.709
Transfer characteristics : BT.709
Matrix coefficients : BT.709
Audio
ID : 2
Format : AC-3
Format/Info : Audio Coding 3
Codec ID : A_AC3
Duration : 46 min 44 s
Bit rate mode : Constant
Bit rate : 192 kb/s
Channel(s) : 2 channels
Channel positions : Front: L R
Sampling rate : 44.1 kHz
Frame rate : 28.711 FPS (1536 SPF)
Bit depth : 16 bits
Compression mode : Lossy
Stream size : 64.2 MiB (11%)
Service kind : Complete Main
Default : Yes
Forced : No

Скриншоты


Скачать

Скачать бесплатно и на максимальной скорости!

Как скачивать? · Что такое торрент? · Рейтинг и ограничения




Вы не можете начинать темы
Вы не можете отвечать на сообщения
Вы не можете редактировать свои сообщения
Вы не можете удалять свои сообщения
Вы не можете голосовать в опросах
Вы не можете прикреплять файлы к сообщениям
Вы не можете скачивать файлы