Родственные связи / Серии: 1-4 из 4 (Владимир Харченко-Куликовский) [2018, мелодрама, WEBRip]


by Boris G ®
23-Дек-2018 15:24

[Цитировать]

Родственные связи / Серии: 1-4 из 4 (Владимир Харченко-Куликовский) [2018, мелодрама, WEBRip]

Родственные связи
Год выпуска: 2018
Производство: Кинокомпания "Стар Медиа"
Жанр: мелодрама
Продолжительность: ~00:48:00 серия
Субтитры: нет
Режиссёр: Владимир Харченко-Куликовский
В ролях: Ольга Арнтгольц, Сергей Фролов, Алиса Дебабова-Лукшина, Олег Коркушко, Ольга Кияшко, Даниил Мирешкин, Ева Шевченко-Головко
Описание: Тяжелое детство в специализированном интернате запомнится навсегда – скромной девчушке никто не подсказал, как не оступиться. Необдуманный шаг привел героиню к страшной потере, она осталась без ребенка. О трагедии несчастная не сожалела, тяжело было подниматься, с малышом легко упустить призрачные шансы на счастливое будущее. Годы стремительно бежали, осознание пришло незамедлительно, когда настало время обзаводиться семьей. Бедолага поняла, что в жизни родня имеет первостепенное значение. Получится ли у нее наверстать упущенное – сложный неоднозначный вопрос, на который ей нелегко ответить, расписавшись в собственном бессилии.

Реклама: Нет.
Кино-театр
Все раздачи сериала
Sample
Качество: WEBRip
Формат: AVI
Видео кодек: XviD
Аудио кодек: AC3
Видео: 720x400 (1.80:1), 25 fps, XviD build 73 ~1700 kbps avg, 0.236 bit/pixel
Аудио: 48.0 kHz, AC3 Dolby Digital, 2/0 (L,R) ch, ~ 192 kbps

MI

General
Complete name : D:\Родственные связи.2018.WEB-DLRip\01.Родственные связи.2018.WEB-DLRip.avi
Format : AVI
Format/Info : Audio Video Interleave
File size : 659 MiB
Duration : 48 min 32 s
Overall bit rate : 1 899 kb/s
Writing application : VirtualDubMod 1.5.10.3 | www.virtualdub-fr.org || (build 2550/release)
Writing library : VirtualDubMod build 2550/release
Video
ID : 0
Format : MPEG-4 Visual
Format profile : Advanced Simple@L5
Format settings : BVOP1
Format settings, BVOP : 1
Format settings, QPel : No
Format settings, GMC : No warppoints
Format settings, Matrix : Default (MPEG)
Codec ID : XVID
Codec ID/Hint : XviD
Duration : 48 min 32 s
Bit rate : 1 698 kb/s
Width : 720 pixels
Height : 400 pixels
Display aspect ratio : 16:9
Frame rate : 25.000 FPS
Color space : YUV
Chroma subsampling : 4:2:0
Bit depth : 8 bits
Scan type : Progressive
Compression mode : Lossy
Bits/(Pixel*Frame) : 0.236
Stream size : 589 MiB (89%)
Writing library : XviD 73
Audio
ID : 1
Format : AC-3
Format/Info : Audio Coding 3
Codec ID : 2000
Duration : 48 min 32 s
Bit rate mode : Constant
Bit rate : 192 kb/s
Channel(s) : 2 channels
Channel positions : Front: L R
Sampling rate : 48.0 kHz
Frame rate : 31.250 FPS (1536 SPF)
Bit depth : 16 bits
Compression mode : Lossy
Stream size : 66.7 MiB (10%)
Alignment : Split accross interleaves
Interleave, duration : 40 ms (1.00 video frame)
Interleave, preload duratio : 500 ms
Service kind : Complete Main

Скриншоты


Скачать

Скачать бесплатно и на максимальной скорости!

Как скачивать? · Что такое торрент? · Рейтинг и ограничения




Вы не можете начинать темы
Вы не можете отвечать на сообщения
Вы не можете редактировать свои сообщения
Вы не можете удалять свои сообщения
Вы не можете голосовать в опросах
Вы не можете прикреплять файлы к сообщениям
Вы не можете скачивать файлы