Чисто московские убийства (Столичная сплетница) / Сезон: 2 / Серии: 1-8 из 8 (Филипп Коршунов) [2018, детектив, криминал, WEBRip]


by Boris G ®
23-Dec-2018 15:24

[Quote]

Чисто московские убийства (Столичная сплетница) / Сезон: 2 / Серии: 1-8 из 8 (Филипп Коршунов) [2018, детектив, криминал, WEBRip]

Чисто московские убийства
Год выпуска: 2018
Производство: Маурис Филм
Жанр: детектив, криминал
Продолжительность: ~00:44:00 серия
Субтитры: нет
Режиссёр: Филипп Коршунов
В ролях: Людмила Чурсина, Сергей Беляев, Дмитрий Мазуров, Татьяна Курова, Ирина Крутик, Александр Яцко, Аглая Тарасова, Дарья Дроздовская, Екатерина Семёнова, Ольга Богданова, Марианна Шульц, Серафима Низовская, Константин Быков, Евгения Бордзиловская, Алла Будницкая
Описание: Продолжение приключений нашей "мисс Марпл" - Екатерины Власовой (Людмила Чурсина). На этот раз, после вечеринки, устроенной по случаю открытия салона красоты "Виктория", происходит убийство владелицы заведения. Под подозрение попадает сама Екатерина Власова. По мнению следователя Капустина, старого недруга Екатерины, Власова таким образом устранила конкурентку, которая переманивала клиентов...

Реклама: Нет.

Все раздачи сериала
Sample
Качество: WEBRip
Формат: AVI
Видео кодек: XviD
Аудио кодек: AC3
Видео: 720x400 (1.80:1), 25 fps, XviD build 73 ~1540 kbps avg, 0.213 bit/pixel
Аудио: 48.0 kHz, AC3 Dolby Digital, 2/0 (L,R) ch, ~ 192 kbps

MI

General
Complete name : D:\Чисто московские убийства 2 WEB-DLRip\01.Чисто московские убийства 2.(2018).WEB-DLRip.avi
Format : AVI
Format/Info : Audio Video Interleave
File size : 557 MiB
Duration : 44 min 46 s
Overall bit rate : 1 738 kb/s
Writing application : VirtualDubMod 1.5.10.3 | www.virtualdub-fr.org || (build 2550/release)
Writing library : VirtualDubMod build 2550/release
Video
ID : 0
Format : MPEG-4 Visual
Format profile : Advanced Simple@L5
Format settings : BVOP1 / Custom Matrix
Format settings, BVOP : 1
Format settings, QPel : No
Format settings, GMC : No warppoints
Format settings, Matrix : Custom
Codec ID : XVID
Codec ID/Hint : XviD
Duration : 44 min 46 s
Bit rate : 1 537 kb/s
Width : 720 pixels
Height : 400 pixels
Display aspect ratio : 16:9
Frame rate : 25.000 FPS
Color space : YUV
Chroma subsampling : 4:2:0
Bit depth : 8 bits
Scan type : Progressive
Compression mode : Lossy
Bits/(Pixel*Frame) : 0.213
Stream size : 492 MiB (88%)
Writing library : XviD 73
Audio
ID : 1
Format : AC-3
Format/Info : Audio Coding 3
Codec ID : 2000
Duration : 44 min 46 s
Bit rate mode : Constant
Bit rate : 192 kb/s
Channel(s) : 2 channels
Channel positions : Front: L R
Sampling rate : 48.0 kHz
Frame rate : 31.250 FPS (1536 SPF)
Bit depth : 16 bits
Compression mode : Lossy
Stream size : 61.5 MiB (11%)
Alignment : Split accross interleaves
Interleave, duration : 40 ms (1.00 video frame)
Interleave, preload duratio : 500 ms
Service kind : Complete Main

Скриншоты


Download

Download free and at maximum speed!

How to Download? · What is a torrent? · Ratings and Limitations




You cannot post new topics in this forum
You cannot reply to topics in this forum
You cannot edit your posts in this forum
You cannot delete your posts in this forum
You cannot vote in polls in this forum
You cannot attach files in this forum
You cannot download files in this forum