Непредвиденные обстоятельства / Серии: 1-4 из 4 (Дмитрий Сорокин) [2018, мелодрама, HDTVRip]


by Boris G ®
23-Дек-2018 15:24

[Цитировать]

Непредвиденные обстоятельства / Серии: 1-4 из 4 (Дмитрий Сорокин) [2018, мелодрама, HDTVRip]

Непредвиденные обстоятельства
Год выпуска: 2018
Производство: Медиа-Арена
Жанр: мелодрама
Продолжительность: ~00:44:00 серия
Субтитры: нет
Режиссёр: Дмитрий Сорокин
В ролях: Ольга Дятловская, Максим Радугин, Михаил Химичев, Мария Дунаевская, Есения Медведева, Анастасия Соловьева, Виктор Васильев, Дмитрий Мухин
Описание: Оксана работает переводчиком в компании, занимающейся перепродажей медикаментов. У нее роман с гендиректором — Леонидом. Все замечательно, только вот есть одно «но» … Леонид женат. Оксана верит, что он скоро разведется и уйдет к ней. Вот только сам Леонид ничего такого делать не собирается. Его жена — дочь крупного чиновника и благополучие Леонида напрямую зависит от расположения тестя. В итоге Жанна застает Леонида и Оксану. Отец запрещает ей разводиться, так что она вынуждена закрыть глаза на измену мужа. Зато выжить Оксану из компании она в силах. Потеряв и работу, и любимого мужчину, Оксана решает начать новую жизнь. Но ее счастью мешают непредвиденные обстоятельства…

Реклама: Нет.
Кинопоиск
Все раздачи сериала
Sample
Качество: HDTVRip
Формат: AVI
Видео кодек: XviD
Аудио кодек: AC3
Видео: 720x400 (1.80:1), 25 fps, XviD build 73 ~2000 kbps avg, 0.278 bit/pixel
Аудио: 48.0 kHz, AC3 Dolby Digital, 2/0 (L,R) ch, ~ 192 kbps

MI

General
Complete name : D:\Непредвиденные обстоятельства.2018.HDTVRip\01.Непредвиденные обстоятельства.2018.HDTVRip.avi
Format : AVI
Format/Info : Audio Video Interleave
File size : 1.35 GiB
Duration : 1 h 27 min
Overall bit rate : 2 202 kb/s
Writing application : VirtualDubMod 1.5.10.3 | www.virtualdub-fr.org || (build 2550/release)
Writing library : VirtualDubMod build 2550/release
Video
ID : 0
Format : MPEG-4 Visual
Format profile : Advanced Simple@L5
Format settings : BVOP1
Format settings, BVOP : 1
Format settings, QPel : No
Format settings, GMC : No warppoints
Format settings, Matrix : Default (MPEG)
Codec ID : XVID
Codec ID/Hint : XviD
Duration : 1 h 27 min
Bit rate : 2 000 kb/s
Width : 720 pixels
Height : 400 pixels
Display aspect ratio : 16:9
Frame rate : 25.000 FPS
Color space : YUV
Chroma subsampling : 4:2:0
Bit depth : 8 bits
Scan type : Progressive
Compression mode : Lossy
Bits/(Pixel*Frame) : 0.278
Stream size : 1.23 GiB (91%)
Writing library : XviD 73
Audio
ID : 1
Format : AC-3
Format/Info : Audio Coding 3
Codec ID : 2000
Duration : 1 h 27 min
Bit rate mode : Constant
Bit rate : 192 kb/s
Channel(s) : 2 channels
Channel positions : Front: L R
Sampling rate : 48.0 kHz
Frame rate : 31.250 FPS (1536 SPF)
Bit depth : 16 bits
Compression mode : Lossy
Stream size : 120 MiB (9%)
Alignment : Split accross interleaves
Interleave, duration : 40 ms (1.00 video frame)
Interleave, preload duratio : 500 ms
Service kind : Complete Main

Скриншоты


Скачать

Скачать бесплатно и на максимальной скорости!

Как скачивать? · Что такое торрент? · Рейтинг и ограничения




Вы не можете начинать темы
Вы не можете отвечать на сообщения
Вы не можете редактировать свои сообщения
Вы не можете удалять свои сообщения
Вы не можете голосовать в опросах
Вы не можете прикреплять файлы к сообщениям
Вы не можете скачивать файлы