Непредвиденные обстоятельства / Серии: 1-4 из 4 (Дмитрий Сорокин) [2018, мелодрама, HDTVRip 720p]


by Boris G ®
23-Dec-2018 15:24

[Quote]

Непредвиденные обстоятельства / Серии: 1-4 из 4 (Дмитрий Сорокин) [2018, мелодрама, HDTVRip 720p]

Непредвиденные обстоятельства
Год выпуска: 2018
Производство: Медиа-Арена
Жанр: мелодрама
Продолжительность: ~00:44:00 серия
Субтитры: нет
Режиссёр: Дмитрий Сорокин
В ролях: Ольга Дятловская, Максим Радугин, Михаил Химичев, Мария Дунаевская, Есения Медведева, Анастасия Соловьева, Виктор Васильев, Дмитрий Мухин
Описание: Оксана работает переводчиком в компании, занимающейся перепродажей медикаментов. У нее роман с гендиректором — Леонидом. Все замечательно, только вот есть одно «но» … Леонид женат. Оксана верит, что он скоро разведется и уйдет к ней. Вот только сам Леонид ничего такого делать не собирается. Его жена — дочь крупного чиновника и благополучие Леонида напрямую зависит от расположения тестя. В итоге Жанна застает Леонида и Оксану. Отец запрещает ей разводиться, так что она вынуждена закрыть глаза на измену мужа. Зато выжить Оксану из компании она в силах. Потеряв и работу, и любимого мужчину, Оксана решает начать новую жизнь. Но ее счастью мешают непредвиденные обстоятельства…

Реклама: Нет.
Кинопоиск
Все раздачи сериала
Sample
Качество: HDTVRip 720p
Формат: MKV
Видео кодек: H.264
Аудио кодек: AC3
Видео: MPEG4 AVC Video, H264, 16:9, 1280x720, 25 fps, ~4000 kbps, 0.174 bit/pixel
Аудио: AC3 Dolby Digital, 48 kHz, 2/0 (L,R) ch, 192 kbp

MI

General
Unique ID : 194731745781403913008537911959648135214 (0x927FF85409C626CD9A1B32A67A02E82E)
Complete name : D:\Nepredvidennye.obstoyatelstva.2018.HDTVRip.(720p).Nikolspup\Nepredvidennye.obstoyatelstva.(01.seriya.iz.02).2018.HDTVRip.(720p).Nikolspup.mkv
Format : Matroska
Format version : Version 4 / Version 2
File size : 2.57 GiB
Duration : 1 h 27 min
Overall bit rate : 4 194 kb/s
Encoded date : UTC 2018-11-04 17:44:26
Writing application : mkvmerge v7.8.0 ('River Man') 32bit built on Mar 27 2015 16:18:02
Writing library : libebml v1.3.1 + libmatroska v1.4.2
Video
ID : 1
Format : AVC
Format/Info : Advanced Video Codec
Format profile : High@L4.1
Format settings : CABAC / 9 Ref Frames
Format settings, CABAC : Yes
Format settings, ReFrames : 9 frames
Codec ID : V_MPEG4/ISO/AVC
Duration : 1 h 27 min
Bit rate : 4 000 kb/s
Width : 1 280 pixels
Height : 720 pixels
Display aspect ratio : 16:9
Frame rate mode : Constant
Frame rate : 25.000 FPS
Color space : YUV
Chroma subsampling : 4:2:0
Bit depth : 8 bits
Scan type : Progressive
Bits/(Pixel*Frame) : 0.174
Stream size : 2.45 GiB (95%)
Writing library : x264 core 146 r2538 121396c
Encoding settings : cabac=1 / ref=9 / deblock=1:-2:-1 / analyse=0x3:0x133 / me=umh / subme=9 / psy=1 / psy_rd=1.00:0.20 / mixed_ref=1 / me_range=32 / chroma_me=1 / trellis=2 / 8x8dct=1 / cqm=0 / deadzone=21,11 / fast_pskip=1 / chroma_qp_offset=-3 / threads=16 / lookahead_threads=8 / sliced_threads=0 / nr=0 / decimate=1 / interlaced=0 / bluray_compat=0 / constrained_intra=0 / bframes=11 / b_pyramid=2 / b_adapt=2 / b_bias=0 / direct=1 / weightb=1 / open_gop=0 / weightp=2 / keyint=250 / keyint_min=25 / scenecut=40 / intra_refresh=0 / rc=2pass / mbtree=0 / bitrate=4000 / ratetol=1.0 / qcomp=0.60 / qpmin=0 / qpmax=69 / qpstep=4 / cplxblur=20.0 / qblur=0.5 / ip_ratio=1.40 / pb_ratio=1.30 / aq=3:1.00
Default : No
Forced : No
Color range : Limited
Color primaries : BT.709
Transfer characteristics : BT.709
Matrix coefficients : BT.709
Audio
ID : 2
Format : AC-3
Format/Info : Audio Coding 3
Codec ID : A_AC3
Duration : 1 h 27 min
Bit rate mode : Constant
Bit rate : 192 kb/s
Channel(s) : 2 channels
Channel positions : Front: L R
Sampling rate : 48.0 kHz
Frame rate : 31.250 FPS (1536 SPF)
Bit depth : 16 bits
Compression mode : Lossy
Stream size : 120 MiB (5%)
Language : Russian
Service kind : Complete Main
Default : Yes
Forced : Yes

Скриншоты


Download

Download free and at maximum speed!

How to Download? · What is a torrent? · Ratings and Limitations




You cannot post new topics in this forum
You cannot reply to topics in this forum
You cannot edit your posts in this forum
You cannot delete your posts in this forum
You cannot vote in polls in this forum
You cannot attach files in this forum
You cannot download files in this forum