Неродная / Серии: 1-4 из 4 (Александр Грабарь) [2018, мелодрама, WEBRip]


by Boris G ®
23-Дек-2018 15:24

[Цитировать]

Неродная / Серии: 1-4 из 4 (Александр Грабарь) [2018, мелодрама, WEBRip]

Неродная
Год выпуска: 2018
Производство: Продюсерский центр "Фабула", "ЕйБиСи Фильм Украина", Vileton Films
Жанр: мелодрама
Продолжительность: ~00:46:00 серия
Субтитры: нет
Режиссёр: Александр Грабарь
В ролях: Анна Васильева, Татьяна Казючиц, Сергей Мухин, Эрик Абрамович, Роман Полянский, Евгений Никитин, Лариса Маршалова, Олег Ткачёв, Игорь Денисов, Анна Полупанова, Наталья Аладко, Дмитрий Егоров, Александр Тарасов, Юлианна Михневич, Зоя Антонова, Александр Одинец, Александр Павлов, Анна Ницкая
Описание: Освободившаяся из колонии несовершеннолетняя Женя узнает, что ей некуда идти – квартира, в которой они жили с матерью, продана, сама мать в психушке, а сводная сестра Ирина даже не пускает на порог. Муж Ирины Саша проникается к несчастной девушке сочувствием и, несмотря на протесты Ирины, предлагает Жене пожить у них. Женя хочет узнать, из-за кого погибла ее лучшая подруга, а сама Женя попала за решетку. Ирина считает затею безумной, да и полиция давно закрыла это дело. Но Женя начинает собственное расследование...

Реклама: Нет.
Кино-театр
Все раздачи сериала
Sample
Качество: WEBRip - Files-x
Формат: AVI
Видео кодек: XviD
Аудио кодек: AC3
Видео: 720x400 (1.80:1), 25 fps, XviD build 73 ~1930 kbps avg, 0.268 bit/pixel
Аудио: 48.0 kHz, AC3 Dolby Digital, 2/0 (L,R) ch, ~ 192 kbps

MI

General
Complete name : D:\Неродная.2018.WEBRip.by.Nicodem.Files-x\01.Неродная.2018.WEBRip.by.Nicodem.Files-x.avi
Format : AVI
Format/Info : Audio Video Interleave
File size : 1.37 GiB
Duration : 1 h 32 min
Overall bit rate : 2 131 kb/s
Writing application : VirtualDubMod 1.5.10.3 | www.virtualdub-fr.org || (build 2550/release)
Writing library : VirtualDubMod build 2550/release
Video
ID : 0
Format : MPEG-4 Visual
Format profile : Advanced Simple@L5
Format settings : BVOP1 / Custom Matrix
Format settings, BVOP : 1
Format settings, QPel : No
Format settings, GMC : No warppoints
Format settings, Matrix : Custom
Codec ID : XVID
Codec ID/Hint : XviD
Duration : 1 h 32 min
Bit rate : 1 929 kb/s
Width : 720 pixels
Height : 400 pixels
Display aspect ratio : 16:9
Frame rate : 25.000 FPS
Color space : YUV
Chroma subsampling : 4:2:0
Bit depth : 8 bits
Scan type : Progressive
Compression mode : Lossy
Bits/(Pixel*Frame) : 0.268
Stream size : 1.24 GiB (91%)
Writing library : XviD 73
Audio
ID : 1
Format : AC-3
Format/Info : Audio Coding 3
Codec ID : 2000
Duration : 1 h 32 min
Bit rate mode : Constant
Bit rate : 192 kb/s
Channel(s) : 2 channels
Channel positions : Front: L R
Sampling rate : 48.0 kHz
Frame rate : 31.250 FPS (1536 SPF)
Bit depth : 16 bits
Compression mode : Lossy
Stream size : 127 MiB (9%)
Alignment : Split accross interleaves
Interleave, duration : 40 ms (1.00 video frame)
Interleave, preload duratio : 500 ms
Service kind : Complete Main

Скриншоты


Скачать

Скачать бесплатно и на максимальной скорости!

Как скачивать? · Что такое торрент? · Рейтинг и ограничения




Вы не можете начинать темы
Вы не можете отвечать на сообщения
Вы не можете редактировать свои сообщения
Вы не можете удалять свои сообщения
Вы не можете голосовать в опросах
Вы не можете прикреплять файлы к сообщениям
Вы не можете скачивать файлы