Неродная / Серии: 1-4 из 4 (Александр Грабарь) [2018, мелодрама, WEBRip-AVC]


by Boris G ®
23-Дек-2018 15:24

[Цитировать]

Неродная / Серии: 1-4 из 4 (Александр Грабарь) [2018, мелодрама, WEBRip-AVC]

Неродная
Год выпуска: 2018
Производство: Продюсерский центр "Фабула", "ЕйБиСи Фильм Украина", Vileton Films
Жанр: мелодрама
Продолжительность: ~00:46:00 серия
Субтитры: нет
Режиссёр: Александр Грабарь
В ролях: Анна Васильева, Татьяна Казючиц, Сергей Мухин, Эрик Абрамович, Роман Полянский, Евгений Никитин, Лариса Маршалова, Олег Ткачёв, Игорь Денисов, Анна Полупанова, Наталья Аладко, Дмитрий Егоров, Александр Тарасов, Юлианна Михневич, Зоя Антонова, Александр Одинец, Александр Павлов, Анна Ницкая
Описание: Освободившаяся из колонии несовершеннолетняя Женя узнает, что ей некуда идти – квартира, в которой они жили с матерью, продана, сама мать в психушке, а сводная сестра Ирина даже не пускает на порог. Муж Ирины Саша проникается к несчастной девушке сочувствием и, несмотря на протесты Ирины, предлагает Жене пожить у них. Женя хочет узнать, из-за кого погибла ее лучшая подруга, а сама Женя попала за решетку. Ирина считает затею безумной, да и полиция давно закрыла это дело. Но Женя начинает собственное расследование...

Реклама: Нет.
Кино-театр
Все раздачи сериала
Sample
Качество: WEBRip-AVC - Серый1779
Формат: MKV
Видео кодек: H.264
Аудио кодек: AC3
Видео: MPEG4 AVC Video, H264, 16:9, 1024x576, 25 fps, ~1600 kbps, 0.109 bit/pixel
Аудио: AC3 Dolby Digital, 48.0 kHz, 2/0 (L,R) ch, 192 kbps

MI

General
Unique ID : 253604793380119887456332760193688105404 (0xBECA81ADFCD7961B9B70522111AB71BC)
Complete name : D:\Неродная.(2018).WEBRip.(AVC).Files-x\01.Неродная.(2018).WEBRip.(AVC).by.Серый1779.Files-x.mkv
Format : Matroska
Format version : Version 2
File size : 1.15 GiB
Duration : 1 h 31 min
Overall bit rate : 1 793 kb/s
Encoded date : UTC 2018-11-04 04:45:21
Writing application : mkvmerge v7.8.0 ('River Man') 32bit built on Apr 3 2015 12:11:22
Writing library : libebml v1.3.1 + libmatroska v1.4.2
Video
ID : 1
Format : AVC
Format/Info : Advanced Video Codec
Format profile : High@L4.1
Format settings : CABAC / 9 Ref Frames
Format settings, CABAC : Yes
Format settings, ReFrames : 9 frames
Codec ID : V_MPEG4/ISO/AVC
Duration : 1 h 31 min
Bit rate : 1 600 kb/s
Width : 1 024 pixels
Height : 576 pixels
Display aspect ratio : 16:9
Frame rate mode : Constant
Frame rate : 25.000 FPS
Color space : YUV
Chroma subsampling : 4:2:0
Bit depth : 8 bits
Scan type : Progressive
Bits/(Pixel*Frame) : 0.109
Stream size : 1.00 GiB (87%)
Writing library : x264 core 146 r2538 121396c
Encoding settings : cabac=1 / ref=9 / deblock=1:-2:-1 / analyse=0x3:0x133 / me=umh / subme=9 / psy=1 / psy_rd=1.00:0.15 / mixed_ref=1 / me_range=32 / chroma_me=1 / trellis=2 / 8x8dct=1 / cqm=0 / deadzone=21,11 / fast_pskip=0 / chroma_qp_offset=-3 / threads=18 / lookahead_threads=3 / sliced_threads=0 / nr=0 / decimate=1 / interlaced=0 / bluray_compat=0 / constrained_intra=0 / bframes=9 / b_pyramid=2 / b_adapt=2 / b_bias=0 / direct=1 / weightb=1 / open_gop=0 / weightp=2 / keyint=250 / keyint_min=25 / scenecut=40 / intra_refresh=0 / rc=2pass / mbtree=0 / bitrate=1600 / ratetol=1.0 / qcomp=0.60 / qpmin=0 / qpmax=69 / qpstep=4 / cplxblur=20.0 / qblur=0.5 / ip_ratio=1.40 / pb_ratio=1.30 / aq=2:1.00
Default : Yes
Forced : No
Color range : Limited
Color primaries : BT.709
Transfer characteristics : BT.709
Matrix coefficients : BT.709
Audio
ID : 2
Format : AC-3
Format/Info : Audio Coding 3
Codec ID : A_AC3
Duration : 1 h 31 min
Bit rate mode : Constant
Bit rate : 192 kb/s
Channel(s) : 2 channels
Channel positions : Front: L R
Sampling rate : 48.0 kHz
Frame rate : 31.250 FPS (1536 SPF)
Bit depth : 16 bits
Compression mode : Lossy
Stream size : 126 MiB (11%)
Service kind : Complete Main
Default : Yes
Forced : No

Скриншоты


Скачать

Скачать бесплатно и на максимальной скорости!

Как скачивать? · Что такое торрент? · Рейтинг и ограничения




Вы не можете начинать темы
Вы не можете отвечать на сообщения
Вы не можете редактировать свои сообщения
Вы не можете удалять свои сообщения
Вы не можете голосовать в опросах
Вы не можете прикреплять файлы к сообщениям
Вы не можете скачивать файлы