Моя любимая свекровь. Московские каникулы / Сезон: 3 / Серии: 1-4 из 4 (Филипп Коршунов) [2018, мелодрама, комедия, WEBRip]


by Boris G ®
23-Dec-2018 15:24

[Quote]

Моя любимая свекровь. Московские каникулы / Сезон: 3 / Серии: 1-4 из 4 (Филипп Коршунов) [2018, мелодрама, комедия, WEBRip]

Моя любимая свекровь. Московские каникулы
Год выпуска: 2018
Производство: Маурис Филм
Жанр: мелодрама, комедия
Продолжительность: ~00:46:00 серия
Субтитры: нет
Режиссёр: Филипп Коршунов
В ролях: Евгения Дмитриева, Константин Соловьев, Марина Дюжева, Ивар Калныньш, Галина Петрова, Владимир Стеклов, Владимир Носик, Наталья Хорохорина, Игорь Пазыч, Антонина Дивина
Описание: В честь годовщины свадьбы Таня и Иван решили устроить московские каникулы. Евгению предложили место в хорошей клинике, а Нику пригласили на кастинг в мюзикл. Грандиозные планы и у бабушки Антонины Тарасовны, решившей, что Ванечка непременно должен стать кадетом. В столице их ждут незабываемые приключения.

Реклама: Нет.
Кинопоиск
Все раздачи сериала
Sample
Качество: WEBRip - Files-x
Формат: AVI
Видео кодек: XviD
Аудио кодек: AC3
Видео: 720x400 (1.80:1), 25 fps, XviD build 73 ~1500 kbps avg, 0.207 bit/pixel
Аудио: 48,0 kHz, AC3 Dolby Digital, 2/0 (L,R) ch, ~ 192 kbps

MI

General
Complete name : D:\Моя любимая свекровь 3 (2018)..WEB-DLRip.Files-x\1.Моя любимая свекровь 3 (2018)..WEB-DLRip.Files-x.avi
Format : AVI
Format/Info : Audio Video Interleave
File size : 566 MiB
Duration : 46 min 44 s
Overall bit rate : 1 693 kb/s
Writing application : VirtualDubMod 1.5.10.3 | www.virtualdub-fr.org || (build 2550/release)
Writing library : VirtualDubMod build 2550/release
Video
ID : 0
Format : MPEG-4 Visual
Format profile : Advanced Simple@L5
Format settings : BVOP1 / Custom Matrix
Format settings, BVOP : 1
Format settings, QPel : No
Format settings, GMC : No warppoints
Format settings, Matrix : Custom
Codec ID : XVID
Codec ID/Hint : XviD
Duration : 46 min 44 s
Bit rate : 1 492 kb/s
Width : 720 pixels
Height : 400 pixels
Display aspect ratio : 16:9
Frame rate : 25.000 FPS
Color space : YUV
Chroma subsampling : 4:2:0
Bit depth : 8 bits
Scan type : Progressive
Compression mode : Lossy
Bits/(Pixel*Frame) : 0.207
Stream size : 499 MiB (88%)
Writing library : XviD 73
Audio
ID : 1
Format : AC-3
Format/Info : Audio Coding 3
Codec ID : 2000
Duration : 46 min 44 s
Bit rate mode : Constant
Bit rate : 192 kb/s
Channel(s) : 2 channels
Channel positions : Front: L R
Sampling rate : 48.0 kHz
Frame rate : 31.250 FPS (1536 SPF)
Bit depth : 16 bits
Compression mode : Lossy
Stream size : 64.2 MiB (11%)
Alignment : Split accross interleaves
Interleave, duration : 40 ms (1.00 video frame)
Interleave, preload duratio : 500 ms
Service kind : Complete Main

Скриншоты


Download

Download free and at maximum speed!

How to Download? · What is a torrent? · Ratings and Limitations




You cannot post new topics in this forum
You cannot reply to topics in this forum
You cannot edit your posts in this forum
You cannot delete your posts in this forum
You cannot vote in polls in this forum
You cannot attach files in this forum
You cannot download files in this forum