, жанр, боевик, драма, криминальный, фильм>, продолжительность, мин, субтитры, отсутствуют->, режиссер, зиновий, ройзман->, ролях, екатерина, редникова, михаил, жигалов, андрей, соколов, ярослав, бойко, анжелина, карелина, карим, мирхадиев, александр, баширов, алексей, шевченков, панин, игнатий, акрачков, борис, химичев, владимир, яглыч, ильин, раиса" /> жанр боевик драма криминальный фильм> продолжительность ~ мин > субтитры отсутствуют-> режиссер зиновий ройзман-> в ролях екатерина редникова михаил жигалов андрей соколов ярослав бойко анжелина карелина карим мирхадиев александр баширов алексей шевченков алексей панин игнатий акрачков борис химичев владимир яглыч александр ильин раиса рязанова нелли пшенная олег вавилов юрий назаров александр головин игорь класс жан даниэль амиран амиранашвили (ii) рашид тугушев вячеслав титов антон сёмкин анна казючиц игорь ливанов наталья третьякова владимир бадов сергей медведев данила перов и др -> описание россия год в бескрайних поволжских степях бесчинствует банда грабящая автофуры и угоняющая иномарки много месяцев сотрудники милиции безуспешно пытаются выйти на след преступников чтобы обезвредить преступников милиции приходится пойти на отчаянный шаг – поймать банду «на живца» наживкой становится трейлер которым управляют милиционеры – двое мужчин и женщина они изображают дальнобойщиков и случайную попутчицу зарабатывающую bittorrent,anime,download utorrent,adobe photoshop,get adobe,photo shop,Скачать бесплатно аниме,фильмы с русской озвучкой в отличном качестве,скачать,сериалы,русские сериалы,зарубежные сериалы,зарубежные фильмы,кино,аниме,рутрекер,торрент,торрент трекер," /> Охота на асфальте / Сезон: 1 / Серии: 1-8 из 8 (Зиновий Ройзман) [2005, боевик, драма, криминальный фильм, DVDRip]

Охота на асфальте / Сезон: 1 / Серии: 1-8 из 8 (Зиновий Ройзман) [2005, боевик, драма, криминальный фильм, DVDRip]


by Boris G ®
23-Дек-2018 15:24

[Цитировать]

Охота на асфальте / Сезон: 1 / Серии: 1-8 из 8 (Зиновий Ройзман) [2005, боевик, драма, криминальный фильм, DVDRip]

Охота на асфальте- > Год выпуска: 2005
> Производство: «Студия "Элегия" по заказу ЦЕНТРАЛ ПАРТНЕРШИП»
> Жанр: Боевик, драма, криминальный фильм
> Продолжительность: ~ 44 мин.
> Субтитры: Отсутствуют-> Режиссер: Зиновий Ройзман-> В ролях: Екатерина Редникова, Михаил Жигалов, Андрей Соколов, Ярослав Бойко, Анжелина Карелина, Карим Мирхадиев, Александр Баширов, Алексей Шевченков, Алексей Панин, Игнатий Акрачков, Борис Химичев, Владимир Яглыч, Александр Ильин, Раиса Рязанова, Нелли Пшенная, Олег Вавилов, Юрий Назаров, Александр Головин, Игорь Класс, Жан Даниэль, Амиран Амиранашвили (II), Рашид Тугушев, Вячеслав Титов, Антон Сёмкин, Анна Казючиц, Игорь Ливанов, Наталья Третьякова, Владимир Бадов, Сергей Медведев, Данила Перов и др.-> Описание: Россия, 1999 год. В бескрайних поволжских степях бесчинствует банда, грабящая автофуры и угоняющая иномарки. Много месяцев сотрудники милиции безуспешно пытаются выйти на след преступников. Чтобы обезвредить преступников милиции приходится пойти на отчаянный шаг – поймать банду «на живца». Наживкой становится трейлер, которым управляют милиционеры, – двое мужчин и женщина. Они изображают дальнобойщиков и случайную попутчицу, зарабатывающую на большой дороге обслуживанием экипажей. Одиночество и опасность сближает напарников, однако их отношения осложняются соперничеством из-за единственной женщины в команде. Тем временем, бандиты заканчивают формирование своей группировки. Счет идет на часы – кто первым достигнет своей цели, даже ценою жертвы, о которой предстоит жалеть всю оставшуюся жизнь…
-
> Релиз группы -> Все раздачи сериала
> Семпл
> Кино-Театр-> Качество: DVDRip
> Формат: AVI
> Видео кодек: XviD
> Аудио кодек: AC3
> Видео: 688x384 (1.79:1), 25 fps, XviD build 73 ~1497 kbps avg, 0.23 bit/pixel
> Аудио: 48 kHz, AC3 Dolby Digital, 2/0 (L,R) ch, ~192.00 kbps avg

MediaInfo

Код:General
Complete name : D:\Охота на асфальте\Ohota.na.asfalte.s01e01.2005.DVDRip.RG.Russkie.serialy.avi
Format : AVI
Format/Info : Audio Video Interleave
File size : 530 MiB
Duration : 43mn 36s
Overall bit rate : 1 699 Kbps
Writing application : VirtualDubMod 1.5.10.3 | www.virtualdub-fr.org || (build 2550/release)
Writing library : VirtualDubMod build 2550/release
Video
ID : 0
Format : MPEG-4 Visual
Format profile : Advanced Simple@L5
Format settings, BVOP : 2
Format settings, QPel : No
Format settings, GMC : No warppoints
Format settings, Matrix : Custom
Codec ID : XVID
Codec ID/Hint : XviD
Duration : 43mn 36s
Bit rate : 1 497 Kbps
Width : 688 pixels
Height : 384 pixels
Display aspect ratio : 16:9
Frame rate : 25.000 fps
Color space : YUV
Chroma subsampling : 4:2:0
Bit depth : 8 bits
Scan type : Progressive
Compression mode : Lossy
Bits/(Pixel*Frame) : 0.227
Stream size : 467 MiB (88%)
Writing library : XviD 73
Audio
ID : 1
Format : AC-3
Format/Info : Audio Coding 3
Mode extension : CM (complete main)
Format settings, Endianness : Big
Codec ID : 2000
Duration : 43mn 36s
Bit rate mode : Constant
Bit rate : 192 Kbps
Channel(s) : 2 channels
Channel positions : Front: L R
Sampling rate : 48.0 KHz
Bit depth : 16 bits
Compression mode : Lossy
Stream size : 59.9 MiB (11%)
Alignment : Split accross interleaves
Interleave, duration : 40 ms (1.00 video frame)
Interleave, preload duration : 500 ms

Скриншоты








СравнениеСравнение с этой раздачей http://rutracker.org/forum/viewtopic.php?t=467490
http://screenshotcomparison.com/comparison/124294/picture:7
Скачать

Скачать бесплатно и на максимальной скорости!

Как скачивать? · Что такое торрент? · Рейтинг и ограничения




Вы не можете начинать темы
Вы не можете отвечать на сообщения
Вы не можете редактировать свои сообщения
Вы не можете удалять свои сообщения
Вы не можете голосовать в опросах
Вы не можете прикреплять файлы к сообщениям
Вы не можете скачивать файлы