, жанр, детектив>, продолжительность, мин, субтитры, отсутствуют->, режиссер, дмитрий, петрунь, дакович, иван, лебедев, (iv)->, ролях, вера, строкова, мадлен, джабраилова, евгений, стычкин, анатолий, лобоцкий, максим, коновалов, наталия, курдюбова, валерий, сторожик, игорь, войнаровский, (ii), виноградов, олег, фомин, александр, феклистов, мария, баева, сирин, др, описание" /> жанр детектив> продолжительность ~ мин > субтитры отсутствуют-> режиссер дмитрий петрунь дмитрий дакович иван лебедев (iv)-> в ролях вера строкова мадлен джабраилова евгений стычкин анатолий лобоцкий максим коновалов наталия курдюбова валерий сторожик игорь войнаровский (ii) максим виноградов (ii) олег фомин александр феклистов мария баева александр сирин и др -> описание ее зовут ева и она орудие зла подтолкнуть к предательству убедить честного человека лжесвидетельствовать а миролюбивого взять в руки оружие - ева может устроить все так что ни одна тень не упадет на заказчика -> релиз группы &# ;-> все раздачи сериала> семпл> кино-театр-> качество hdtvrip [источник hdtv ]> формат avi> видео кодек xvid> аудио кодек mp > видео x ( ) fps xvid build ~ kbps avg bit pixel> аудио khz mpeg layer ch ~ kbps avgmediainfoкод generalcomplete name d \откровения реванш\otkroveniya revansh s e hdtvrip rg russkie bittorrent,anime,download utorrent,adobe photoshop,get adobe,photo shop,Скачать бесплатно аниме,фильмы с русской озвучкой в отличном качестве,скачать,сериалы,русские сериалы,зарубежные сериалы,зарубежные фильмы,кино,аниме,рутрекер,торрент,торрент трекер," /> Откровения. Реванш / Сезон: 1 / Серии: 1-12 из 12 (Дмитрий Петрунь, Дмитрий Дакович, Иван Лебедев (IV)) [2012, детектив, HDTVRip]

Откровения. Реванш / Сезон: 1 / Серии: 1-12 из 12 (Дмитрий Петрунь, Дмитрий Дакович, Иван Лебедев (IV)) [2012, детектив, HDTVRip]


by Boris G ®
23-Dec-2018 15:24

[Quote]

Откровения. Реванш / Сезон: 1 / Серии: 1-12 из 12 (Дмитрий Петрунь, Дмитрий Дакович, Иван Лебедев (IV)) [2012, детектив, HDTVRip]

Откровения. Реванш- > Год выпуска: 2012
> Производство: «ТРК ВС РФ "Звезда"»
> Жанр: Детектив
> Продолжительность: ~ 25 мин.
> Субтитры: Отсутствуют-> Режиссер: Дмитрий Петрунь, Дмитрий Дакович, Иван Лебедев (IV)-> В ролях: Вера Строкова, Мадлен Джабраилова, Евгений Стычкин, Анатолий Лобоцкий, Максим Коновалов, Наталия Курдюбова, Валерий Сторожик, Игорь Войнаровский (II), Максим Виноградов (II), Олег Фомин, Александр Феклистов, Мария Баева, Александр Сирин и др.-> Описание: Ее зовут Ева, и она орудие зла. Подтолкнуть к предательству, убедить честного человека лжесвидетельствовать, а миролюбивого взять в руки оружие - Ева может устроить все так, что ни одна тень не упадет на заказчика.-> Релиз группы -> Все раздачи сериала
> Семпл
> Кино-Театр-> Качество: HDTVRip [Источник HDTV 720]
> Формат: AVI
> Видео кодек: XviD
> Аудио кодек: MP3
> Видео: 720x400 (1.80:1), 25 fps, XviD build 73 ~1503 kbps avg, 0.21 bit/pixel
> Аудио: 48 kHz, MPEG Layer 3, 2 ch, ~128.00 kbps avg

MediaInfo

Код:General
Complete name : D:\Откровения. Реванш\Otkroveniya.Revansh .s01e01.2012.HDTVRip.RG.Russkie.serialy.avi
Format : AVI
Format/Info : Audio Video Interleave
File size : 306 MiB
Duration : 26mn 2s
Overall bit rate : 1 642 Kbps
Writing application : VirtualDubMod 1.5.10.3 | www.virtualdub-fr.org || (build 2550/release)
Writing library : VirtualDubMod build 2550/release
Video
ID : 0
Format : MPEG-4 Visual
Format profile : Advanced Simple@L5
Format settings, BVOP : 2
Format settings, QPel : No
Format settings, GMC : No warppoints
Format settings, Matrix : Custom
Codec ID : XVID
Codec ID/Hint : XviD
Duration : 26mn 2s
Bit rate : 1 504 Kbps
Width : 720 pixels
Height : 400 pixels
Display aspect ratio : 16:9
Frame rate : 25.000 fps
Color space : YUV
Chroma subsampling : 4:2:0
Bit depth : 8 bits
Scan type : Progressive
Compression mode : Lossy
Bits/(Pixel*Frame) : 0.209
Stream size : 280 MiB (92%)
Writing library : XviD 73
Audio
ID : 1
Format : MPEG Audio
Format version : Version 1
Format profile : Layer 3
Codec ID : 55
Codec ID/Hint : MP3
Duration : 26mn 2s
Bit rate mode : Constant
Bit rate : 128 Kbps
Channel(s) : 2 channels
Sampling rate : 48.0 KHz
Compression mode : Lossy
Stream size : 23.8 MiB (8%)
Alignment : Aligned on interleaves
Interleave, duration : 40 ms (1.00 video frame)
Interleave, preload duration : 504 ms
Writing library : LAME3.99r
Encoding settings : -m s -V 4 -q 2 -lowpass 17 -b 128

Скриншоты








СравнениеСравнение с этой раздачей http://rutracker.org/forum/viewtopic.php?t=4225057
http://screenshotcomparison.com/comparison/123649/picture:5
Download

Download free and at maximum speed!

How to Download? · What is a torrent? · Ratings and Limitations




You cannot post new topics in this forum
You cannot reply to topics in this forum
You cannot edit your posts in this forum
You cannot delete your posts in this forum
You cannot vote in polls in this forum
You cannot attach files in this forum
You cannot download files in this forum