Батюшка / Сезон 1 / Серии: 1-8 из 8 (Василий Мищенко) [2008, Драма, DVD9]


by Boris G ®
23-Dec-2018 15:24

[Quote]

Батюшка / Сезон 1 / Серии: 1-8 из 8 (Василий Мищенко) [2008, Драма, DVD9]

-Батюшка--«Дорога к храму»- Год выпуска: 2008
Производство:: Эверест фильм
Жанр: драма
Продолжительность: ~ 352 минуты
Субтитры: нет
Режиссер: Василий Мищенко
В ролях: Виктор Павлюченков, Артем Мазунов, Тамара Сёмина, Дарья Мищенко, Анна Легчилова, Сергей Шеховцов, Геннадий Юхтин, Игорь Арташонов, Нелли Неведина, Валентин Варецки и др.

Описание: Сорокалетний моряк Роман Малышев, вечный странник и убежденный холостяк, отдавший флоту большую часть своей сознательной жизни, на короткий срок по семейным обстоятельствам приезжает в родное село.
Здесь он принимает участие в восстановлении Храма, разрушенного в годы социалистического строительства. На глазах Романа и при его непосредственном участии начинает медленно возрождаться православная община в селе, пробуждается приходская жизнь: к живому, зримому делу тянутся односельчане, поначалу с недоверием и усмешкой взиравшие на странную возню малочисленных, разрозненных, и почти нищих прихожан, по большей части старичков и старушек, возглавляемых разукрашенным татуировками громилой-боцманом.
Постепенно Роману удается привлечь на свою сторону не только рядовых жителей села, но и местную власть, милицию, нескольких авторитетных односельчан, которым не безразлично будущее своей малой Родины. Одновременно в жизни нашего героя происходит еще одно важное событие — он влюбляется и впервые начинает задумываться о семейной жизни.
Восстановление церкви закончено. Богослужения возобновились. Ожил приход. Личные обстоятельства, по которым Роман оказался в вынужденном продолжительном отпуске благополучно разрешились. Вроде бы настала пора возвращаться к прежней жизни. Но Малышев тянет, всё откладывает отъезд и, наконец, выбирает другое решение: он женится на своей избраннице и принимает священнический сан — становится батюшкой.
Доп.информация: Издание от 5 марта 2009, «CP-Digital» DVD9 сканы прилагаются
Реклама: нет
Сэмпл: http://sendfile.su/1452372
Меню: Есть, русское, статичное, озвученное
Качество: DVD9
Формат: DVD-Video
Видео кодек: MPEG2
Аудио кодек: AC3
Видео: PAL 4:3 720x576@768X576, 25,000 fps, ~ 2965 kbps
Аудио: Russian AC3 2.0, 48,0 КГц, 192 kbps

MI

Общее
Полное имя : I:\Фильмы\Сериалы\Батюшка (2008) DVD9\VIDEO_TS\VIDEO_TS.BUP
Формат : DVD Video
Профиль формата : Menu
Размер файла : 20,0 Кбайт
Режим общего битрейта : Переменный
FileExtension_Invalid : ifo
Видео
Идентификатор : 224 (0xE0)
Формат : MPEG Video
Версия формата : Version 2
Вид битрейта : Переменный
Ширина : 720 пикселей
Высота : 576 пикселей
Соотношение сторон : 4:3
Частота кадров : 25,000 кадров/сек
Стандарт вещания : PAL
Метод сжатия : С потерями
Текст
Формат : RLE
Формат/Информация : Run-length encoding
Битовая глубина : 2 бит
Общее
Полное имя : I:\Фильмы\Сериалы\Батюшка (2008) DVD9\VIDEO_TS\VIDEO_TS.IFO
Формат : DVD Video
Профиль формата : Menu
Размер файла : 20,0 Кбайт
Режим общего битрейта : Переменный
Видео
Идентификатор : 224 (0xE0)
Формат : MPEG Video
Версия формата : Version 2
Вид битрейта : Переменный
Ширина : 720 пикселей
Высота : 576 пикселей
Соотношение сторон : 4:3
Частота кадров : 25,000 кадров/сек
Стандарт вещания : PAL
Метод сжатия : С потерями
Текст
Формат : RLE
Формат/Информация : Run-length encoding
Битовая глубина : 2 бит
Общее
Полное имя : I:\Фильмы\Сериалы\Батюшка (2008) DVD9\VIDEO_TS\VTS_01_0.BUP
Формат : DVD Video
Профиль формата : Program
Размер файла : 26,0 Кбайт
Продолжительность : 5 с. 0 мс.
Режим общего битрейта : Переменный
Общий поток : 42,6 Кбит/сек
FileExtension_Invalid : ifo
Видео
Идентификатор : 224 (0xE0)
Формат : MPEG Video
Версия формата : Version 2
Продолжительность : 5 с. 0 мс.
Вид битрейта : Переменный
Битрейт : 34,0 Кбит/сек
Ширина : 720 пикселей
Высота : 576 пикселей
Соотношение сторон : 4:3
Частота кадров : 25,000 кадров/сек
Стандарт вещания : PAL
Метод сжатия : С потерями
Бит/(Пиксели*Кадры) : 0.003
Размер потока : 20,8 Кбайт (80%)
Меню
Продолжительность : 5 с. 0 мс.
00:00:00.000 : Chapter 1
Общее
Полное имя : I:\Фильмы\Сериалы\Батюшка (2008) DVD9\VIDEO_TS\VTS_01_0.IFO
Формат : DVD Video
Профиль формата : Program
Размер файла : 26,0 Кбайт
Продолжительность : 5 с. 0 мс.
Режим общего битрейта : Переменный
Общий поток : 42,6 Кбит/сек
Видео
Идентификатор : 224 (0xE0)
Формат : MPEG Video
Версия формата : Version 2
Продолжительность : 5 с. 0 мс.
Вид битрейта : Переменный
Битрейт : 34,0 Кбит/сек
Ширина : 720 пикселей
Высота : 576 пикселей
Соотношение сторон : 4:3
Частота кадров : 25,000 кадров/сек
Стандарт вещания : PAL
Метод сжатия : С потерями
Бит/(Пиксели*Кадры) : 0.003
Размер потока : 20,8 Кбайт (80%)
Меню
Продолжительность : 5 с. 0 мс.
00:00:00.000 : Chapter 1
Общее
Полное имя : I:\Фильмы\Сериалы\Батюшка (2008) DVD9\VIDEO_TS\VTS_01_0.VOB
Формат : MPEG-PS
Размер файла : 140 Мбайт
Продолжительность : 23 с. 0 мс.
Режим общего битрейта : Переменный
Общий поток : 51,1 Мбит/сек
Видео
Идентификатор : 224 (0xE0)
Формат : MPEG Video
Версия формата : Version 2
Профиль формата : Main@Main
Настройки формата : CustomMatrix / BVOP
Параметр BVOP формата : Да
Параметр матрицы формата : Выборочная
Параметр GOP формата : Variable
Продолжительность : 23 с. 0 мс.
Вид битрейта : Переменный
Битрейт : 49,8 Мбит/сек
Максимальный битрейт : 8000 Кбит/сек
Ширина : 720 пикселей
Высота : 576 пикселей
Соотношение сторон : 4:3
Частота кадров : 25,000 кадров/сек
Стандарт вещания : PAL
Цветовое пространство : YUV
Субдискретизация насыщенности : 4:2:0
Битовая глубина : 8 бит
Метод сжатия : С потерями
Бит/(Пиксели*Кадры) : 4.808
Размер потока : 137 Мбайт (98%)
Основные цвета : BT.601 PAL
Характеристики трансфера : BT.470 System B/G
Коэффициенты матрицы : BT.470 System B/G
Аудио
Идентификатор : 189 (0xBD)-128 (0x80)
Формат : AC-3
Формат/Информация : Audio Coding 3
Коммерческое название : Dolby Digital
Режим смешивания : DVD-Video
Продолжительность : 22 с. 976 мс.
Вид битрейта : Постоянный
Битрейт : 192 Кбит/сек
Каналы : 2 канала
Channel layout : L R
Частота : 48,0 КГц
Частота кадров : 31,250 кадров/сек (1536 SPF)
Битовая глубина : 16 бит
Метод сжатия : С потерями
Размер потока : 539 Кбайт (0%)
ServiceKind/String : Complete Main
Текст
Идентификатор : 189 (0xBD)-32 (0x20)
Формат : RLE
Формат/Информация : Run-length encoding
Режим смешивания : DVD-Video
Меню
Общее
Полное имя : I:\Фильмы\Сериалы\Батюшка (2008) DVD9\VIDEO_TS\VTS_01_1.VOB
Формат : MPEG-PS
Размер файла : 4,24 Мбайт
Продолжительность : 5 с. 0 мс.
Режим общего битрейта : Постоянный
Общий поток : 7120 Кбит/сек
Видео
Идентификатор : 224 (0xE0)
Формат : MPEG Video
Версия формата : Version 2
Профиль формата : Main@Main
Настройки формата : BVOP
Параметр BVOP формата : Да
Параметр матрицы формата : По умолчанию
Параметр GOP формата : M=3, N=12
Структура изображения : Frame
Продолжительность : 5 с. 0 мс.
Вид битрейта : Постоянный
Битрейт : 7000 Кбит/сек
Ширина : 720 пикселей
Высота : 576 пикселей
Соотношение сторон : 4:3
Частота кадров : 25,000 кадров/сек
Стандарт вещания : PAL
Цветовое пространство : YUV
Субдискретизация насыщенности : 4:2:0
Битовая глубина : 8 бит
Тип развёртки : Чересстрочная
Порядок развёртки : Нижнее поле первое
Метод сжатия : С потерями
Бит/(Пиксели*Кадры) : 0.675
Временной код первого кадра : 00:00:00:00
Оригинал временного кода : Group of pictures header
GOP, открыто/закрыто : Закрыто
Размер потока : 4,16 Мбайт (98%)
Меню
Общее
Полное имя : I:\Фильмы\Сериалы\Батюшка (2008) DVD9\VIDEO_TS\VTS_02_0.BUP
Формат : DVD Video
Профиль формата : Program
Размер файла : 18,0 Кбайт
Продолжительность : 11 с. 40 мс.
Режим общего битрейта : Переменный
Общий поток : 13,4 Кбит/сек
FileExtension_Invalid : ifo
Видео
Идентификатор : 224 (0xE0)
Формат : MPEG Video
Версия формата : Version 2
Продолжительность : 11 с. 40 мс.
Вид битрейта : Переменный
Ширина : 720 пикселей
Высота : 576 пикселей
Соотношение сторон : 4:3
Частота кадров : 25,000 кадров/сек
Стандарт вещания : PAL
Метод сжатия : С потерями
Аудио
Идентификатор : 128 (0x80)
Формат : AC-3
Формат/Информация : Audio Coding 3
Продолжительность : 11 с. 40 мс.
Каналы : 6 каналов
Частота : 48,0 КГц
Метод сжатия : С потерями
Текст
Идентификатор : 32 (0x20)
Формат : RLE
Формат/Информация : Run-length encoding
Битовая глубина : 2 бит
Меню
Продолжительность : 11 с. 40 мс.
00:00:00.000 : Chapter 1
List (Audio) : 0
List (Subtitles 4/3) : 0
List (Subtitles Wide) : 0
List (Subtitles Letterbox) : 0
List (Subtitles Pan&Scan) : 0
Общее
Полное имя : I:\Фильмы\Сериалы\Батюшка (2008) DVD9\VIDEO_TS\VTS_02_0.IFO
Формат : DVD Video
Профиль формата : Program
Размер файла : 18,0 Кбайт
Продолжительность : 11 с. 40 мс.
Режим общего битрейта : Переменный
Общий поток : 13,4 Кбит/сек
Видео
Идентификатор : 224 (0xE0)
Формат : MPEG Video
Версия формата : Version 2
Продолжительность : 11 с. 40 мс.
Вид битрейта : Переменный
Ширина : 720 пикселей
Высота : 576 пикселей
Соотношение сторон : 4:3
Частота кадров : 25,000 кадров/сек
Стандарт вещания : PAL
Метод сжатия : С потерями
Аудио
Идентификатор : 128 (0x80)
Формат : AC-3
Формат/Информация : Audio Coding 3
Продолжительность : 11 с. 40 мс.
Каналы : 6 каналов
Частота : 48,0 КГц
Метод сжатия : С потерями
Текст
Идентификатор : 32 (0x20)
Формат : RLE
Формат/Информация : Run-length encoding
Битовая глубина : 2 бит
Меню
Продолжительность : 11 с. 40 мс.
00:00:00.000 : Chapter 1
List (Audio) : 0
List (Subtitles 4/3) : 0
List (Subtitles Wide) : 0
List (Subtitles Letterbox) : 0
List (Subtitles Pan&Scan) : 0
Общее
Полное имя : I:\Фильмы\Сериалы\Батюшка (2008) DVD9\VIDEO_TS\VTS_02_0.VOB
Формат : MPEG-PS
Размер файла : 2,00 Кбайт
Меню
Общее
Полное имя : I:\Фильмы\Сериалы\Батюшка (2008) DVD9\VIDEO_TS\VTS_02_1.VOB
Формат : MPEG-PS
Размер файла : 3,98 Мбайт
Продолжительность : 11 с. 40 мс.
Режим общего битрейта : Переменный
Общий поток : 3022 Кбит/сек
Видео
Идентификатор : 224 (0xE0)
Формат : MPEG Video
Версия формата : Version 2
Профиль формата : Main@Main
Настройки формата : BVOP
Параметр BVOP формата : Да
Параметр матрицы формата : По умолчанию
Параметр GOP формата : M=3, N=15
Структура изображения : Frame
Продолжительность : 11 с. 40 мс.
Вид битрейта : Переменный
Битрейт : 2513 Кбит/сек
Максимальный битрейт : 4704 Кбит/сек
Ширина : 720 пикселей
Высота : 576 пикселей
Соотношение сторон : 4:3
Частота кадров : 25,000 кадров/сек
Стандарт вещания : PAL
Цветовое пространство : YUV
Субдискретизация насыщенности : 4:2:0
Битовая глубина : 8 бит
Тип развёртки : Чересстрочная
Порядок развёртки : Нижнее поле первое
Метод сжатия : С потерями
Бит/(Пиксели*Кадры) : 0.242
Временной код первого кадра : 00:00:00:00
Оригинал временного кода : Group of pictures header
GOP, открыто/закрыто : Открыто
GOP, открыто/закрыто на первом кадре : Закрыто
Размер потока : 3,31 Мбайт (83%)
Основные цвета : BT.601 PAL
Характеристики трансфера : BT.470 System B/G
Коэффициенты матрицы : BT.470 System B/G
Аудио
Идентификатор : 189 (0xBD)-128 (0x80)
Формат : AC-3
Формат/Информация : Audio Coding 3
Коммерческое название : Dolby Digital
Режим смешивания : DVD-Video
Продолжительность : 11 с. 8 мс.
Вид битрейта : Постоянный
Битрейт : 448 Кбит/сек
Каналы : 6 каналов
Channel layout : L R C LFE Ls Rs
Частота : 48,0 КГц
Частота кадров : 31,250 кадров/сек (1536 SPF)
Битовая глубина : 16 бит
Метод сжатия : С потерями
Размер потока : 602 Кбайт (15%)
ServiceKind/String : Complete Main
Текст
Идентификатор : 189 (0xBD)-32 (0x20)
Формат : RLE
Формат/Информация : Run-length encoding
Режим смешивания : DVD-Video
Задержка видео : 9 с. 480 мс.
Меню
Общее
Полное имя : I:\Фильмы\Сериалы\Батюшка (2008) DVD9\VIDEO_TS\VTS_03_0.BUP
Формат : DVD Video
Профиль формата : Program
Размер файла : 18,0 Кбайт
Продолжительность : 1 м. 37 с.
Режим общего битрейта : Переменный
Общий поток : 1518 бит/сек
FileExtension_Invalid : ifo
Видео
Идентификатор : 224 (0xE0)
Формат : MPEG Video
Версия формата : Version 2
Продолжительность : 1 м. 37 с.
Вид битрейта : Переменный
Ширина : 720 пикселей
Высота : 576 пикселей
Соотношение сторон : 16:9
Частота кадров : 25,000 кадров/сек
Стандарт вещания : PAL
Метод сжатия : С потерями
Аудио
Идентификатор : 128 (0x80)
Формат : AC-3
Формат/Информация : Audio Coding 3
Продолжительность : 1 м. 37 с.
Каналы : 2 канала
Частота : 48,0 КГц
Метод сжатия : С потерями
Текст
Идентификатор : 32 (0x20)
Формат : RLE
Формат/Информация : Run-length encoding
Битовая глубина : 2 бит
Меню
Продолжительность : 1 м. 37 с.
00:00:00.000 : Chapter 1
List (Audio) : 0
List (Subtitles 4/3) : 0
List (Subtitles Wide) : 0
List (Subtitles Letterbox) : 0
List (Subtitles Pan&Scan) : 0
Общее
Полное имя : I:\Фильмы\Сериалы\Батюшка (2008) DVD9\VIDEO_TS\VTS_03_0.IFO
Формат : DVD Video
Профиль формата : Program
Размер файла : 18,0 Кбайт
Продолжительность : 1 м. 37 с.
Режим общего битрейта : Переменный
Общий поток : 1518 бит/сек
Видео
Идентификатор : 224 (0xE0)
Формат : MPEG Video
Версия формата : Version 2
Продолжительность : 1 м. 37 с.
Вид битрейта : Переменный
Ширина : 720 пикселей
Высота : 576 пикселей
Соотношение сторон : 16:9
Частота кадров : 25,000 кадров/сек
Стандарт вещания : PAL
Метод сжатия : С потерями
Аудио
Идентификатор : 128 (0x80)
Формат : AC-3
Формат/Информация : Audio Coding 3
Продолжительность : 1 м. 37 с.
Каналы : 2 канала
Частота : 48,0 КГц
Метод сжатия : С потерями
Текст
Идентификатор : 32 (0x20)
Формат : RLE
Формат/Информация : Run-length encoding
Битовая глубина : 2 бит
Меню
Продолжительность : 1 м. 37 с.
00:00:00.000 : Chapter 1
List (Audio) : 0
List (Subtitles 4/3) : 0
List (Subtitles Wide) : 0
List (Subtitles Letterbox) : 0
List (Subtitles Pan&Scan) : 0
Общее
Полное имя : I:\Фильмы\Сериалы\Батюшка (2008) DVD9\VIDEO_TS\VTS_03_0.VOB
Формат : MPEG-PS
Размер файла : 2,00 Кбайт
Меню
Общее
Полное имя : I:\Фильмы\Сериалы\Батюшка (2008) DVD9\VIDEO_TS\VTS_03_1.VOB
Формат : MPEG-PS
Размер файла : 71,1 Мбайт
Продолжительность : 1 м. 37 с.
Режим общего битрейта : Переменный
Общий поток : 6139 Кбит/сек
Видео
Идентификатор : 224 (0xE0)
Формат : MPEG Video
Версия формата : Version 2
Профиль формата : Main@Main
Настройки формата : CustomMatrix / BVOP
Параметр BVOP формата : Да
Параметр матрицы формата : Выборочная
Параметр GOP формата : Variable
Продолжительность : 1 м. 37 с.
Вид битрейта : Переменный
Битрейт : 5825 Кбит/сек
Максимальный битрейт : 8000 Кбит/сек
Ширина : 720 пикселей
Высота : 576 пикселей
Соотношение сторон : 16:9
Частота кадров : 25,000 кадров/сек
Стандарт вещания : PAL
Цветовое пространство : YUV
Субдискретизация насыщенности : 4:2:0
Битовая глубина : 8 бит
Тип развёртки : Прогрессивная
Метод сжатия : С потерями
Бит/(Пиксели*Кадры) : 0.562
Временной код первого кадра : 00:00:00:00
Оригинал временного кода : Group of pictures header
Размер потока : 67,5 Мбайт (95%)
Аудио
Идентификатор : 189 (0xBD)-128 (0x80)
Формат : AC-3
Формат/Информация : Audio Coding 3
Коммерческое название : Dolby Digital
Режим смешивания : DVD-Video
Продолжительность : 1 м. 37 с.
Вид битрейта : Постоянный
Битрейт : 192 Кбит/сек
Каналы : 2 канала
Channel layout : L R
Частота : 48,0 КГц
Частота кадров : 31,250 кадров/сек (1536 SPF)
Битовая глубина : 16 бит
Метод сжатия : С потерями
Размер потока : 2,22 Мбайт (3%)
ServiceKind/String : Complete Main
Текст
Идентификатор : 189 (0xBD)-32 (0x20)
Формат : RLE
Формат/Информация : Run-length encoding
Режим смешивания : DVD-Video
Задержка видео : 1 с. 520 мс.
Меню
Общее
Полное имя : I:\Фильмы\Сериалы\Батюшка (2008) DVD9\VIDEO_TS\VTS_04_0.BUP
Формат : DVD Video
Профиль формата : Program
Размер файла : 34,0 Кбайт
Продолжительность : 44 м. 13 с.
Режим общего битрейта : Переменный
Общий поток : 105 бит/сек
FileExtension_Invalid : ifo
Видео
Идентификатор : 224 (0xE0)
Формат : MPEG Video
Версия формата : Version 2
Продолжительность : 44 м. 13 с.
Вид битрейта : Переменный
Ширина : 720 пикселей
Высота : 576 пикселей
Соотношение сторон : 4:3
Частота кадров : 25,000 кадров/сек
Стандарт вещания : PAL
Метод сжатия : С потерями
Аудио
Идентификатор : 128 (0x80)
Формат : AC-3
Формат/Информация : Audio Coding 3
Продолжительность : 44 м. 13 с.
Каналы : 2 канала
Частота : 48,0 КГц
Метод сжатия : С потерями
Язык : Russian
Меню
Продолжительность : 44 м. 13 с.
00:00:00.000 : Chapter 1
00:12:56.680 : Chapter 2
00:22:24.280 : Chapter 3
00:34:56.320 : Chapter 4
List (Audio) : 0
Общее
Полное имя : I:\Фильмы\Сериалы\Батюшка (2008) DVD9\VIDEO_TS\VTS_04_0.IFO
Формат : DVD Video
Профиль формата : Program
Размер файла : 34,0 Кбайт
Продолжительность : 44 м. 13 с.
Режим общего битрейта : Переменный
Общий поток : 105 бит/сек
Видео
Идентификатор : 224 (0xE0)
Формат : MPEG Video
Версия формата : Version 2
Продолжительность : 44 м. 13 с.
Вид битрейта : Переменный
Ширина : 720 пикселей
Высота : 576 пикселей
Соотношение сторон : 4:3
Частота кадров : 25,000 кадров/сек
Стандарт вещания : PAL
Метод сжатия : С потерями
Аудио
Идентификатор : 128 (0x80)
Формат : AC-3
Формат/Информация : Audio Coding 3
Продолжительность : 44 м. 13 с.
Каналы : 2 канала
Частота : 48,0 КГц
Метод сжатия : С потерями
Язык : Russian
Меню
Продолжительность : 44 м. 13 с.
00:00:00.000 : Chapter 1
00:12:56.680 : Chapter 2
00:22:24.280 : Chapter 3
00:34:56.320 : Chapter 4
List (Audio) : 0
Общее
Полное имя : I:\Фильмы\Сериалы\Батюшка (2008) DVD9\VIDEO_TS\VTS_04_1.VOB
Формат : MPEG-PS
Размер файла : 938 Мбайт
Продолжительность : 44 м. 13 с.
Режим общего битрейта : Переменный
Общий поток : 2964 Кбит/сек
Видео
Идентификатор : 224 (0xE0)
Формат : MPEG Video
Версия формата : Version 2
Профиль формата : Main@Main
Настройки формата : CustomMatrix / BVOP
Параметр BVOP формата : Да
Параметр матрицы формата : Выборочная
Параметр GOP формата : M=3, N=15
Структура изображения : Frame
Продолжительность : 44 м. 13 с.
Вид битрейта : Переменный
Битрейт : 2713 Кбит/сек
Максимальный битрейт : 5000 Кбит/сек
Ширина : 720 пикселей
Высота : 576 пикселей
Соотношение сторон : 4:3
Частота кадров : 25,000 кадров/сек
Стандарт вещания : PAL
Цветовое пространство : YUV
Субдискретизация насыщенности : 4:2:0
Битовая глубина : 8 бит
Тип развёртки : Чересстрочная
Порядок развёртки : Нижнее поле первое
Метод сжатия : С потерями
Бит/(Пиксели*Кадры) : 0.262
Временной код первого кадра : 00:00:00:00
Оригинал временного кода : Group of pictures header
GOP, открыто/закрыто : Открыто
GOP, открыто/закрыто на первом кадре : Закрыто
Размер потока : 858 Мбайт (92%)
Аудио
Идентификатор : 189 (0xBD)-128 (0x80)
Формат : AC-3
Формат/Информация : Audio Coding 3
Коммерческое название : Dolby Digital
Режим смешивания : DVD-Video
Продолжительность : 44 м. 13 с.
Вид битрейта : Постоянный
Битрейт : 192 Кбит/сек
Каналы : 2 канала
Channel layout : L R
Частота : 48,0 КГц
Частота кадров : 31,250 кадров/сек (1536 SPF)
Битовая глубина : 16 бит
Метод сжатия : С потерями
Размер потока : 60,7 Мбайт (6%)
ServiceKind/String : Complete Main
Меню
Общее
Полное имя : I:\Фильмы\Сериалы\Батюшка (2008) DVD9\VIDEO_TS\VTS_05_0.BUP
Формат : DVD Video
Профиль формата : Program
Размер файла : 34,0 Кбайт
Продолжительность : 44 м. 15 с.
Режим общего битрейта : Переменный
Общий поток : 105 бит/сек
FileExtension_Invalid : ifo
Видео
Идентификатор : 224 (0xE0)
Формат : MPEG Video
Версия формата : Version 2
Продолжительность : 44 м. 15 с.
Вид битрейта : Переменный
Ширина : 720 пикселей
Высота : 576 пикселей
Соотношение сторон : 4:3
Частота кадров : 25,000 кадров/сек
Стандарт вещания : PAL
Метод сжатия : С потерями
Аудио
Идентификатор : 128 (0x80)
Формат : AC-3
Формат/Информация : Audio Coding 3
Продолжительность : 44 м. 15 с.
Каналы : 2 канала
Частота : 48,0 КГц
Метод сжатия : С потерями
Язык : Russian
Меню
Продолжительность : 44 м. 15 с.
00:00:00.000 : Chapter 1
00:11:57.280 : Chapter 2
00:22:55.360 : Chapter 3
00:32:37.640 : Chapter 4
List (Audio) : 0
Общее
Полное имя : I:\Фильмы\Сериалы\Батюшка (2008) DVD9\VIDEO_TS\VTS_05_0.IFO
Формат : DVD Video
Профиль формата : Program
Размер файла : 34,0 Кбайт
Продолжительность : 44 м. 15 с.
Режим общего битрейта : Переменный
Общий поток : 105 бит/сек
Видео
Идентификатор : 224 (0xE0)
Формат : MPEG Video
Версия формата : Version 2
Продолжительность : 44 м. 15 с.
Вид битрейта : Переменный
Ширина : 720 пикселей
Высота : 576 пикселей
Соотношение сторон : 4:3
Частота кадров : 25,000 кадров/сек
Стандарт вещания : PAL
Метод сжатия : С потерями
Аудио
Идентификатор : 128 (0x80)
Формат : AC-3
Формат/Информация : Audio Coding 3
Продолжительность : 44 м. 15 с.
Каналы : 2 канала
Частота : 48,0 КГц
Метод сжатия : С потерями
Язык : Russian
Меню
Продолжительность : 44 м. 15 с.
00:00:00.000 : Chapter 1
00:11:57.280 : Chapter 2
00:22:55.360 : Chapter 3
00:32:37.640 : Chapter 4
List (Audio) : 0
Общее
Полное имя : I:\Фильмы\Сериалы\Батюшка (2008) DVD9\VIDEO_TS\VTS_05_1.VOB
Формат : MPEG-PS
Размер файла : 938 Мбайт
Продолжительность : 44 м. 15 с.
Режим общего битрейта : Переменный
Общий поток : 2964 Кбит/сек
Видео
Идентификатор : 224 (0xE0)
Формат : MPEG Video
Версия формата : Version 2
Профиль формата : Main@Main
Настройки формата : CustomMatrix / BVOP
Параметр BVOP формата : Да
Параметр матрицы формата : Выборочная
Параметр GOP формата : M=3, N=15
Структура изображения : Frame
Продолжительность : 44 м. 15 с.
Вид битрейта : Переменный
Битрейт : 2713 Кбит/сек
Максимальный битрейт : 5000 Кбит/сек
Ширина : 720 пикселей
Высота : 576 пикселей
Соотношение сторон : 4:3
Частота кадров : 25,000 кадров/сек
Стандарт вещания : PAL
Цветовое пространство : YUV
Субдискретизация насыщенности : 4:2:0
Битовая глубина : 8 бит
Тип развёртки : Чересстрочная
Порядок развёртки : Нижнее поле первое
Метод сжатия : С потерями
Бит/(Пиксели*Кадры) : 0.262
Временной код первого кадра : 00:00:00:00
Оригинал временного кода : Group of pictures header
GOP, открыто/закрыто : Открыто
GOP, открыто/закрыто на первом кадре : Закрыто
Размер потока : 859 Мбайт (92%)
Аудио
Идентификатор : 189 (0xBD)-128 (0x80)
Формат : AC-3
Формат/Информация : Audio Coding 3
Коммерческое название : Dolby Digital
Режим смешивания : DVD-Video
Продолжительность : 44 м. 15 с.
Вид битрейта : Постоянный
Битрейт : 192 Кбит/сек
Каналы : 2 канала
Channel layout : L R
Частота : 48,0 КГц
Частота кадров : 31,250 кадров/сек (1536 SPF)
Битовая глубина : 16 бит
Метод сжатия : С потерями
Размер потока : 60,8 Мбайт (6%)
ServiceKind/String : Complete Main
Меню
Общее
Полное имя : I:\Фильмы\Сериалы\Батюшка (2008) DVD9\VIDEO_TS\VTS_06_0.BUP
Формат : DVD Video
Профиль формата : Program
Размер файла : 34,0 Кбайт
Продолжительность : 44 м. 14 с.
Режим общего битрейта : Переменный
Общий поток : 105 бит/сек
FileExtension_Invalid : ifo
Видео
Идентификатор : 224 (0xE0)
Формат : MPEG Video
Версия формата : Version 2
Продолжительность : 44 м. 14 с.
Вид битрейта : Переменный
Ширина : 720 пикселей
Высота : 576 пикселей
Соотношение сторон : 4:3
Частота кадров : 25,000 кадров/сек
Стандарт вещания : PAL
Метод сжатия : С потерями
Аудио
Идентификатор : 128 (0x80)
Формат : AC-3
Формат/Информация : Audio Coding 3
Продолжительность : 44 м. 14 с.
Каналы : 2 канала
Частота : 48,0 КГц
Метод сжатия : С потерями
Язык : Russian
Меню
Продолжительность : 44 м. 14 с.
00:00:00.000 : Chapter 1
00:10:31.920 : Chapter 2
00:22:04.080 : Chapter 3
00:32:53.520 : Chapter 4
List (Audio) : 0
Общее
Полное имя : I:\Фильмы\Сериалы\Батюшка (2008) DVD9\VIDEO_TS\VTS_06_0.IFO
Формат : DVD Video
Профиль формата : Program
Размер файла : 34,0 Кбайт
Продолжительность : 44 м. 14 с.
Режим общего битрейта : Переменный
Общий поток : 105 бит/сек
Видео
Идентификатор : 224 (0xE0)
Формат : MPEG Video
Версия формата : Version 2
Продолжительность : 44 м. 14 с.
Вид битрейта : Переменный
Ширина : 720 пикселей
Высота : 576 пикселей
Соотношение сторон : 4:3
Частота кадров : 25,000 кадров/сек
Стандарт вещания : PAL
Метод сжатия : С потерями
Аудио
Идентификатор : 128 (0x80)
Формат : AC-3
Формат/Информация : Audio Coding 3
Продолжительность : 44 м. 14 с.
Каналы : 2 канала
Частота : 48,0 КГц
Метод сжатия : С потерями
Язык : Russian
Меню
Продолжительность : 44 м. 14 с.
00:00:00.000 : Chapter 1
00:10:31.920 : Chapter 2
00:22:04.080 : Chapter 3
00:32:53.520 : Chapter 4
List (Audio) : 0
Общее
Полное имя : I:\Фильмы\Сериалы\Батюшка (2008) DVD9\VIDEO_TS\VTS_06_1.VOB
Формат : MPEG-PS
Размер файла : 938 Мбайт
Продолжительность : 44 м. 14 с.
Режим общего битрейта : Переменный
Общий поток : 2964 Кбит/сек
Видео
Идентификатор : 224 (0xE0)
Формат : MPEG Video
Версия формата : Version 2
Профиль формата : Main@Main
Настройки формата : CustomMatrix / BVOP
Параметр BVOP формата : Да
Параметр матрицы формата : Выборочная
Параметр GOP формата : M=3, N=15
Структура изображения : Frame
Продолжительность : 44 м. 14 с.
Вид битрейта : Переменный
Битрейт : 2713 Кбит/сек
Максимальный битрейт : 5000 Кбит/сек
Ширина : 720 пикселей
Высота : 576 пикселей
Соотношение сторон : 4:3
Частота кадров : 25,000 кадров/сек
Стандарт вещания : PAL
Цветовое пространство : YUV
Субдискретизация насыщенности : 4:2:0
Битовая глубина : 8 бит
Тип развёртки : Чересстрочная
Порядок развёртки : Нижнее поле первое
Метод сжатия : С потерями
Бит/(Пиксели*Кадры) : 0.262
Временной код первого кадра : 00:00:00:00
Оригинал временного кода : Group of pictures header
GOP, открыто/закрыто : Открыто
GOP, открыто/закрыто на первом кадре : Закрыто
Размер потока : 859 Мбайт (92%)
Аудио
Идентификатор : 189 (0xBD)-128 (0x80)
Формат : AC-3
Формат/Информация : Audio Coding 3
Коммерческое название : Dolby Digital
Режим смешивания : DVD-Video
Продолжительность : 44 м. 14 с.
Вид битрейта : Постоянный
Битрейт : 192 Кбит/сек
Каналы : 2 канала
Channel layout : L R
Частота : 48,0 КГц
Частота кадров : 31,250 кадров/сек (1536 SPF)
Битовая глубина : 16 бит
Метод сжатия : С потерями
Размер потока : 60,8 Мбайт (6%)
ServiceKind/String : Complete Main
Меню
Общее
Полное имя : I:\Фильмы\Сериалы\Батюшка (2008) DVD9\VIDEO_TS\VTS_07_0.BUP
Формат : DVD Video
Профиль формата : Program
Размер файла : 34,0 Кбайт
Продолжительность : 44 м. 15 с.
Режим общего битрейта : Переменный
Общий поток : 105 бит/сек
FileExtension_Invalid : ifo
Видео
Идентификатор : 224 (0xE0)
Формат : MPEG Video
Версия формата : Version 2
Продолжительность : 44 м. 15 с.
Вид битрейта : Переменный
Ширина : 720 пикселей
Высота : 576 пикселей
Соотношение сторон : 4:3
Частота кадров : 25,000 кадров/сек
Стандарт вещания : PAL
Метод сжатия : С потерями
Аудио
Идентификатор : 128 (0x80)
Формат : AC-3
Формат/Информация : Audio Coding 3
Продолжительность : 44 м. 15 с.
Каналы : 2 канала
Частота : 48,0 КГц
Метод сжатия : С потерями
Язык : Russian
Меню
Продолжительность : 44 м. 15 с.
00:00:00.000 : Chapter 1
00:09:51.280 : Chapter 2
00:21:08.520 : Chapter 3
00:32:57.480 : Chapter 4
List (Audio) : 0
Общее
Полное имя : I:\Фильмы\Сериалы\Батюшка (2008) DVD9\VIDEO_TS\VTS_07_0.IFO
Формат : DVD Video
Профиль формата : Program
Размер файла : 34,0 Кбайт
Продолжительность : 44 м. 15 с.
Режим общего битрейта : Переменный
Общий поток : 105 бит/сек
Видео
Идентификатор : 224 (0xE0)
Формат : MPEG Video
Версия формата : Version 2
Продолжительность : 44 м. 15 с.
Вид битрейта : Переменный
Ширина : 720 пикселей
Высота : 576 пикселей
Соотношение сторон : 4:3
Частота кадров : 25,000 кадров/сек
Стандарт вещания : PAL
Метод сжатия : С потерями
Аудио
Идентификатор : 128 (0x80)
Формат : AC-3
Формат/Информация : Audio Coding 3
Продолжительность : 44 м. 15 с.
Каналы : 2 канала
Частота : 48,0 КГц
Метод сжатия : С потерями
Язык : Russian
Меню
Продолжительность : 44 м. 15 с.
00:00:00.000 : Chapter 1
00:09:51.280 : Chapter 2
00:21:08.520 : Chapter 3
00:32:57.480 : Chapter 4
List (Audio) : 0
Общее
Полное имя : I:\Фильмы\Сериалы\Батюшка (2008) DVD9\VIDEO_TS\VTS_07_1.VOB
Формат : MPEG-PS
Размер файла : 938 Мбайт
Продолжительность : 44 м. 15 с.
Режим общего битрейта : Переменный
Общий поток : 2964 Кбит/сек
Видео
Идентификатор : 224 (0xE0)
Формат : MPEG Video
Версия формата : Version 2
Профиль формата : Main@Main
Настройки формата : CustomMatrix / BVOP
Параметр BVOP формата : Да
Параметр матрицы формата : Выборочная
Параметр GOP формата : M=3, N=15
Структура изображения : Frame
Продолжительность : 44 м. 15 с.
Вид битрейта : Переменный
Битрейт : 2713 Кбит/сек
Максимальный битрейт : 5000 Кбит/сек
Ширина : 720 пикселей
Высота : 576 пикселей
Соотношение сторон : 4:3
Частота кадров : 25,000 кадров/сек
Стандарт вещания : PAL
Цветовое пространство : YUV
Субдискретизация насыщенности : 4:2:0
Битовая глубина : 8 бит
Тип развёртки : Чересстрочная
Порядок развёртки : Нижнее поле первое
Метод сжатия : С потерями
Бит/(Пиксели*Кадры) : 0.262
Временной код первого кадра : 00:00:00:00
Оригинал временного кода : Group of pictures header
GOP, открыто/закрыто : Открыто
GOP, открыто/закрыто на первом кадре : Закрыто
Размер потока : 859 Мбайт (92%)
Аудио
Идентификатор : 189 (0xBD)-128 (0x80)
Формат : AC-3
Формат/Информация : Audio Coding 3
Коммерческое название : Dolby Digital
Режим смешивания : DVD-Video
Продолжительность : 44 м. 15 с.
Вид битрейта : Постоянный
Битрейт : 192 Кбит/сек
Каналы : 2 канала
Channel layout : L R
Частота : 48,0 КГц
Частота кадров : 31,250 кадров/сек (1536 SPF)
Битовая глубина : 16 бит
Метод сжатия : С потерями
Размер потока : 60,8 Мбайт (6%)
ServiceKind/String : Complete Main
Меню
Общее
Полное имя : I:\Фильмы\Сериалы\Батюшка (2008) DVD9\VIDEO_TS\VTS_08_0.BUP
Формат : DVD Video
Профиль формата : Program
Размер файла : 34,0 Кбайт
Продолжительность : 44 м. 15 с.
Режим общего битрейта : Переменный
Общий поток : 105 бит/сек
FileExtension_Invalid : ifo
Видео
Идентификатор : 224 (0xE0)
Формат : MPEG Video
Версия формата : Version 2
Продолжительность : 44 м. 15 с.
Вид битрейта : Переменный
Ширина : 720 пикселей
Высота : 576 пикселей
Соотношение сторон : 4:3
Частота кадров : 25,000 кадров/сек
Стандарт вещания : PAL
Метод сжатия : С потерями
Аудио
Идентификатор : 128 (0x80)
Формат : AC-3
Формат/Информация : Audio Coding 3
Продолжительность : 44 м. 15 с.
Каналы : 2 канала
Частота : 48,0 КГц
Метод сжатия : С потерями
Язык : Russian
Меню
Продолжительность : 44 м. 15 с.
00:00:00.000 : Chapter 1
00:10:11.080 : Chapter 2
00:22:27.280 : Chapter 3
00:33:21.200 : Chapter 4
List (Audio) : 0
Общее
Полное имя : I:\Фильмы\Сериалы\Батюшка (2008) DVD9\VIDEO_TS\VTS_08_0.IFO
Формат : DVD Video
Профиль формата : Program
Размер файла : 34,0 Кбайт
Продолжительность : 44 м. 15 с.
Режим общего битрейта : Переменный
Общий поток : 105 бит/сек
Видео
Идентификатор : 224 (0xE0)
Формат : MPEG Video
Версия формата : Version 2
Продолжительность : 44 м. 15 с.
Вид битрейта : Переменный
Ширина : 720 пикселей
Высота : 576 пикселей
Соотношение сторон : 4:3
Частота кадров : 25,000 кадров/сек
Стандарт вещания : PAL
Метод сжатия : С потерями
Аудио
Идентификатор : 128 (0x80)
Формат : AC-3
Формат/Информация : Audio Coding 3
Продолжительность : 44 м. 15 с.
Каналы : 2 канала
Частота : 48,0 КГц
Метод сжатия : С потерями
Язык : Russian
Меню
Продолжительность : 44 м. 15 с.
00:00:00.000 : Chapter 1
00:10:11.080 : Chapter 2
00:22:27.280 : Chapter 3
00:33:21.200 : Chapter 4
List (Audio) : 0
Общее
Полное имя : I:\Фильмы\Сериалы\Батюшка (2008) DVD9\VIDEO_TS\VTS_08_1.VOB
Формат : MPEG-PS
Размер файла : 938 Мбайт
Продолжительность : 44 м. 15 с.
Режим общего битрейта : Переменный
Общий поток : 2964 Кбит/сек
Видео
Идентификатор : 224 (0xE0)
Формат : MPEG Video
Версия формата : Version 2
Профиль формата : Main@Main
Настройки формата : CustomMatrix / BVOP
Параметр BVOP формата : Да
Параметр матрицы формата : Выборочная
Параметр GOP формата : M=3, N=15
Структура изображения : Frame
Продолжительность : 44 м. 15 с.
Вид битрейта : Переменный
Битрейт : 2713 Кбит/сек
Максимальный битрейт : 5000 Кбит/сек
Ширина : 720 пикселей
Высота : 576 пикселей
Соотношение сторон : 4:3
Частота кадров : 25,000 кадров/сек
Стандарт вещания : PAL
Цветовое пространство : YUV
Субдискретизация насыщенности : 4:2:0
Битовая глубина : 8 бит
Тип развёртки : Чересстрочная
Порядок развёртки : Нижнее поле первое
Метод сжатия : С потерями
Бит/(Пиксели*Кадры) : 0.262
Временной код первого кадра : 00:00:00:00
Оригинал временного кода : Group of pictures header
GOP, открыто/закрыто : Открыто
GOP, открыто/закрыто на первом кадре : Закрыто
Размер потока : 859 Мбайт (92%)
Аудио
Идентификатор : 189 (0xBD)-128 (0x80)
Формат : AC-3
Формат/Информация : Audio Coding 3
Коммерческое название : Dolby Digital
Режим смешивания : DVD-Video
Продолжительность : 44 м. 15 с.
Вид битрейта : Постоянный
Битрейт : 192 Кбит/сек
Каналы : 2 канала
Channel layout : L R
Частота : 48,0 КГц
Частота кадров : 31,250 кадров/сек (1536 SPF)
Битовая глубина : 16 бит
Метод сжатия : С потерями
Размер потока : 60,8 Мбайт (6%)
ServiceKind/String : Complete Main
Меню
Общее
Полное имя : I:\Фильмы\Сериалы\Батюшка (2008) DVD9\VIDEO_TS\VTS_09_0.BUP
Формат : DVD Video
Профиль формата : Program
Размер файла : 34,0 Кбайт
Продолжительность : 44 м. 16 с.
Режим общего битрейта : Переменный
Общий поток : 105 бит/сек
FileExtension_Invalid : ifo
Видео
Идентификатор : 224 (0xE0)
Формат : MPEG Video
Версия формата : Version 2
Продолжительность : 44 м. 16 с.
Вид битрейта : Переменный
Ширина : 720 пикселей
Высота : 576 пикселей
Соотношение сторон : 4:3
Частота кадров : 25,000 кадров/сек
Стандарт вещания : PAL
Метод сжатия : С потерями
Аудио
Идентификатор : 128 (0x80)
Формат : AC-3
Формат/Информация : Audio Coding 3
Продолжительность : 44 м. 16 с.
Каналы : 2 канала
Частота : 48,0 КГц
Метод сжатия : С потерями
Язык : Russian
Меню
Продолжительность : 44 м. 16 с.
00:00:00.000 : Chapter 1
00:10:12.160 : Chapter 2
00:21:25.200 : Chapter 3
00:33:26.840 : Chapter 4
List (Audio) : 0
Общее
Полное имя : I:\Фильмы\Сериалы\Батюшка (2008) DVD9\VIDEO_TS\VTS_09_0.IFO
Формат : DVD Video
Профиль формата : Program
Размер файла : 34,0 Кбайт
Продолжительность : 44 м. 16 с.
Режим общего битрейта : Переменный
Общий поток : 105 бит/сек
Видео
Идентификатор : 224 (0xE0)
Формат : MPEG Video
Версия формата : Version 2
Продолжительность : 44 м. 16 с.
Вид битрейта : Переменный
Ширина : 720 пикселей
Высота : 576 пикселей
Соотношение сторон : 4:3
Частота кадров : 25,000 кадров/сек
Стандарт вещания : PAL
Метод сжатия : С потерями
Аудио
Идентификатор : 128 (0x80)
Формат : AC-3
Формат/Информация : Audio Coding 3
Продолжительность : 44 м. 16 с.
Каналы : 2 канала
Частота : 48,0 КГц
Метод сжатия : С потерями
Язык : Russian
Меню
Продолжительность : 44 м. 16 с.
00:00:00.000 : Chapter 1
00:10:12.160 : Chapter 2
00:21:25.200 : Chapter 3
00:33:26.840 : Chapter 4
List (Audio) : 0
Общее
Полное имя : I:\Фильмы\Сериалы\Батюшка (2008) DVD9\VIDEO_TS\VTS_09_1.VOB
Формат : MPEG-PS
Размер файла : 939 Мбайт
Продолжительность : 44 м. 16 с.
Режим общего битрейта : Переменный
Общий поток : 2964 Кбит/сек
Видео
Идентификатор : 224 (0xE0)
Формат : MPEG Video
Версия формата : Version 2
Профиль формата : Main@Main
Настройки формата : CustomMatrix / BVOP
Параметр BVOP формата : Да
Параметр матрицы формата : Выборочная
Параметр GOP формата : M=3, N=15
Структура изображения : Frame
Продолжительность : 44 м. 16 с.
Вид битрейта : Переменный
Битрейт : 2713 Кбит/сек
Максимальный битрейт : 5000 Кбит/сек
Ширина : 720 пикселей
Высота : 576 пикселей
Соотношение сторон : 4:3
Частота кадров : 25,000 кадров/сек
Стандарт вещания : PAL
Цветовое пространство : YUV
Субдискретизация насыщенности : 4:2:0
Битовая глубина : 8 бит
Тип развёртки : Чересстрочная
Порядок развёртки : Нижнее поле первое
Метод сжатия : С потерями
Бит/(Пиксели*Кадры) : 0.262
Временной код первого кадра : 00:00:00:00
Оригинал временного кода : Group of pictures header
GOP, открыто/закрыто : Открыто
GOP, открыто/закрыто на первом кадре : Закрыто
Размер потока : 859 Мбайт (92%)
Аудио
Идентификатор : 189 (0xBD)-128 (0x80)
Формат : AC-3
Формат/Информация : Audio Coding 3
Коммерческое название : Dolby Digital
Режим смешивания : DVD-Video
Продолжительность : 44 м. 16 с.
Вид битрейта : Постоянный
Битрейт : 192 Кбит/сек
Каналы : 2 канала
Channel layout : L R
Частота : 48,0 КГц
Частота кадров : 31,250 кадров/сек (1536 SPF)
Битовая глубина : 16 бит
Метод сжатия : С потерями
Размер потока : 60,8 Мбайт (6%)
ServiceKind/String : Complete Main
Меню
Общее
Полное имя : I:\Фильмы\Сериалы\Батюшка (2008) DVD9\VIDEO_TS\VTS_10_0.BUP
Формат : DVD Video
Профиль формата : Program
Размер файла : 34,0 Кбайт
Продолжительность : 44 м. 15 с.
Режим общего битрейта : Переменный
Общий поток : 105 бит/сек
FileExtension_Invalid : ifo
Видео
Идентификатор : 224 (0xE0)
Формат : MPEG Video
Версия формата : Version 2
Продолжительность : 44 м. 15 с.
Вид битрейта : Переменный
Ширина : 720 пикселей
Высота : 576 пикселей
Соотношение сторон : 4:3
Частота кадров : 25,000 кадров/сек
Стандарт вещания : PAL
Метод сжатия : С потерями
Аудио
Идентификатор : 128 (0x80)
Формат : AC-3
Формат/Информация : Audio Coding 3
Продолжительность : 44 м. 15 с.
Каналы : 2 канала
Частота : 48,0 КГц
Метод сжатия : С потерями
Язык : Russian
Меню
Продолжительность : 44 м. 15 с.
00:00:00.000 : Chapter 1
00:12:04.040 : Chapter 2
00:21:21.480 : Chapter 3
00:34:22.040 : Chapter 4
List (Audio) : 0
Общее
Полное имя : I:\Фильмы\Сериалы\Батюшка (2008) DVD9\VIDEO_TS\VTS_10_0.IFO
Формат : DVD Video
Профиль формата : Program
Размер файла : 34,0 Кбайт
Продолжительность : 44 м. 15 с.
Режим общего битрейта : Переменный
Общий поток : 105 бит/сек
Видео
Идентификатор : 224 (0xE0)
Формат : MPEG Video
Версия формата : Version 2
Продолжительность : 44 м. 15 с.
Вид битрейта : Переменный
Ширина : 720 пикселей
Высота : 576 пикселей
Соотношение сторон : 4:3
Частота кадров : 25,000 кадров/сек
Стандарт вещания : PAL
Метод сжатия : С потерями
Аудио
Идентификатор : 128 (0x80)
Формат : AC-3
Формат/Информация : Audio Coding 3
Продолжительность : 44 м. 15 с.
Каналы : 2 канала
Частота : 48,0 КГц
Метод сжатия : С потерями
Язык : Russian
Меню
Продолжительность : 44 м. 15 с.
00:00:00.000 : Chapter 1
00:12:04.040 : Chapter 2
00:21:21.480 : Chapter 3
00:34:22.040 : Chapter 4
List (Audio) : 0
Общее
Полное имя : I:\Фильмы\Сериалы\Батюшка (2008) DVD9\VIDEO_TS\VTS_10_1.VOB
Формат : MPEG-PS
Размер файла : 938 Мбайт
Продолжительность : 44 м. 15 с.
Режим общего битрейта : Переменный
Общий поток : 2965 Кбит/сек
Видео
Идентификатор : 224 (0xE0)
Формат : MPEG Video
Версия формата : Version 2
Профиль формата : Main@Main
Настройки формата : CustomMatrix / BVOP
Параметр BVOP формата : Да
Параметр матрицы формата : Выборочная
Параметр GOP формата : M=3, N=15
Структура изображения : Frame
Продолжительность : 44 м. 15 с.
Вид битрейта : Переменный
Битрейт : 2714 Кбит/сек
Максимальный битрейт : 5000 Кбит/сек
Ширина : 720 пикселей
Высота : 576 пикселей
Соотношение сторон : 4:3
Частота кадров : 25,000 кадров/сек
Стандарт вещания : PAL
Цветовое пространство : YUV
Субдискретизация насыщенности : 4:2:0
Битовая глубина : 8 бит
Тип развёртки : Чересстрочная
Порядок развёртки : Нижнее поле первое
Метод сжатия : С потерями
Бит/(Пиксели*Кадры) : 0.262
Временной код первого кадра : 00:00:00:00
Оригинал временного кода : Group of pictures header
GOP, открыто/закрыто : Открыто
GOP, открыто/закрыто на первом кадре : Закрыто
Размер потока : 859 Мбайт (92%)
Аудио
Идентификатор : 189 (0xBD)-128 (0x80)
Формат : AC-3
Формат/Информация : Audio Coding 3
Коммерческое название : Dolby Digital
Режим смешивания : DVD-Video
Продолжительность : 44 м. 15 с.
Вид битрейта : Постоянный
Битрейт : 192 Кбит/сек
Каналы : 2 канала
Channel layout : L R
Частота : 48,0 КГц
Частота кадров : 31,250 кадров/сек (1536 SPF)
Битовая глубина : 16 бит
Метод сжатия : С потерями
Размер потока : 60,8 Мбайт (6%)
ServiceKind/String : Complete Main
Меню
Общее
Полное имя : I:\Фильмы\Сериалы\Батюшка (2008) DVD9\VIDEO_TS\VTS_11_0.BUP
Формат : DVD Video
Профиль формата : Program
Размер файла : 34,0 Кбайт
Продолжительность : 44 м. 15 с.
Режим общего битрейта : Переменный
Общий поток : 105 бит/сек
FileExtension_Invalid : ifo
Видео
Идентификатор : 224 (0xE0)
Формат : MPEG Video
Версия формата : Version 2
Продолжительность : 44 м. 15 с.
Вид битрейта : Переменный
Ширина : 720 пикселей
Высота : 576 пикселей
Соотношение сторон : 4:3
Частота кадров : 25,000 кадров/сек
Стандарт вещания : PAL
Метод сжатия : С потерями
Аудио
Идентификатор : 128 (0x80)
Формат : AC-3
Формат/Информация : Audio Coding 3
Продолжительность : 44 м. 15 с.
Каналы : 2 канала
Частота : 48,0 КГц
Метод сжатия : С потерями
Язык : Russian
Меню
Продолжительность : 44 м. 15 с.
00:00:00.000 : Chapter 1
00:12:17.720 : Chapter 2
00:23:39.280 : Chapter 3
00:32:33.960 : Chapter 4
List (Audio) : 0
Общее
Полное имя : I:\Фильмы\Сериалы\Батюшка (2008) DVD9\VIDEO_TS\VTS_11_0.IFO
Формат : DVD Video
Профиль формата : Program
Размер файла : 34,0 Кбайт
Продолжительность : 44 м. 15 с.
Режим общего битрейта : Переменный
Общий поток : 105 бит/сек
Видео
Идентификатор : 224 (0xE0)
Формат : MPEG Video
Версия формата : Version 2
Продолжительность : 44 м. 15 с.
Вид битрейта : Переменный
Ширина : 720 пикселей
Высота : 576 пикселей
Соотношение сторон : 4:3
Частота кадров : 25,000 кадров/сек
Стандарт вещания : PAL
Метод сжатия : С потерями
Аудио
Идентификатор : 128 (0x80)
Формат : AC-3
Формат/Информация : Audio Coding 3
Продолжительность : 44 м. 15 с.
Каналы : 2 канала
Частота : 48,0 КГц
Метод сжатия : С потерями
Язык : Russian
Меню
Продолжительность : 44 м. 15 с.
00:00:00.000 : Chapter 1
00:12:17.720 : Chapter 2
00:23:39.280 : Chapter 3
00:32:33.960 : Chapter 4
List (Audio) : 0
Общее
Полное имя : I:\Фильмы\Сериалы\Батюшка (2008) DVD9\VIDEO_TS\VTS_11_1.VOB
Формат : MPEG-PS
Размер файла : 938 Мбайт
Продолжительность : 44 м. 15 с.
Режим общего битрейта : Переменный
Общий поток : 2964 Кбит/сек
Видео
Идентификатор : 224 (0xE0)
Формат : MPEG Video
Версия формата : Version 2
Профиль формата : Main@Main
Настройки формата : CustomMatrix / BVOP
Параметр BVOP формата : Да
Параметр матрицы формата : Выборочная
Параметр GOP формата : M=3, N=15
Структура изображения : Frame
Продолжительность : 44 м. 15 с.
Вид битрейта : Переменный
Битрейт : 2713 Кбит/сек
Максимальный битрейт : 5000 Кбит/сек
Ширина : 720 пикселей
Высота : 576 пикселей
Соотношение сторон : 4:3
Частота кадров : 25,000 кадров/сек
Стандарт вещания : PAL
Цветовое пространство : YUV
Субдискретизация насыщенности : 4:2:0
Битовая глубина : 8 бит
Тип развёртки : Чересстрочная
Порядок развёртки : Нижнее поле первое
Метод сжатия : С потерями
Бит/(Пиксели*Кадры) : 0.262
Временной код первого кадра : 00:00:00:00
Оригинал временного кода : Group of pictures header
GOP, открыто/закрыто : Открыто
GOP, открыто/закрыто на первом кадре : Закрыто
Размер потока : 859 Мбайт (92%)
Аудио
Идентификатор : 189 (0xBD)-128 (0x80)
Формат : AC-3
Формат/И



You cannot post new topics in this forum
You cannot reply to topics in this forum
You cannot edit your posts in this forum
You cannot delete your posts in this forum
You cannot vote in polls in this forum
You cannot attach files in this forum
You cannot download files in this forum

Powered by TorrentPier II © Meithar, TorrentPier II Team яндекс.ћетрика