Перекрестки / Серии: 1-4 из 4 (Александр Кириенко) [2017, мелодрама, WEBRip]


by Boris G ®
23-Dec-2018 15:24

[Quote]

Перекрестки / Серии: 1-4 из 4 (Александр Кириенко) [2017, мелодрама, WEBRip]

Перекрестки
Год выпуска: 2017
Производство: Кинокомпания "УПС"
Жанр: мелодрама
Продолжительность: ~00:43:00 серия
Субтитры: нет
Режиссёр: Александр Кириенко
В ролях: Александр Кобзарь, Глафира Тарханова, Алла Юганова, Юлия Такшина, Ирина Новак, Наталия Васько, Михаил Жонин, Александр Мельник, Анна Кошмал, Яна Соболевская, Сергей Радченко, Людмила Загорская, Сергей Калантай, Дарья Трегубова, Ева Шевченко-Головко, Александр Соколов, Михаил Кукуюк
Описание: Успешный программист Александр Вербов после двадцатилетнего отсутствия приезжает на родину из Канады. Причина приезда — письмо без обратного адреса от дочери Майи, о существовании которой он раньше и не подозревал. Поиски девушки проходят при роковых обстоятельствах, подводящих Александра к принятию главного решения в жизни: вернуться в Канаду или навсегда остаться на родине…

Реклама: Нет.
Кинопоиск
Все раздачи сериала
Sample
Качество: WEBRip
Формат: AVI
Видео кодек: XviD
Аудио кодек: AC3
Видео: 720x400 (1.80:1), 25 fps, XviD build 73 ~1700 kbps avg, 0.235 bit/pixel
Аудио: 48.0 kHz, AC3 Dolby Digital, 2/0 (L,R) ch, ~ 192 kbps

MI

General
Complete name : D:\Перекрестки 2017 WEB-DLRip\Перекрестки 2017 s01e01.avi
Format : AVI
Format/Info : Audio Video Interleave
File size : 591 MiB
Duration : 43 min 34 s
Overall bit rate : 1 897 kb/s
Writing application : VirtualDubMod 1.5.10.3 | www.virtualdub-fr.org || (build 2550/release)
Writing library : VirtualDubMod build 2550/release
Video
ID : 0
Format : MPEG-4 Visual
Format profile : Advanced Simple@L5
Format settings : BVOP1
Format settings, BVOP : 1
Format settings, QPel : No
Format settings, GMC : No warppoints
Format settings, Matrix : Default (MPEG)
Codec ID : XVID
Codec ID/Hint : XviD
Duration : 43 min 34 s
Bit rate : 1 695 kb/s
Width : 720 pixels
Height : 400 pixels
Display aspect ratio : 16:9
Frame rate : 25.000 FPS
Color space : YUV
Chroma subsampling : 4:2:0
Bit depth : 8 bits
Scan type : Progressive
Compression mode : Lossy
Bits/(Pixel*Frame) : 0.235
Stream size : 528 MiB (89%)
Writing library : XviD 73
Audio
ID : 1
Format : AC-3
Format/Info : Audio Coding 3
Codec ID : 2000
Duration : 43 min 34 s
Bit rate mode : Constant
Bit rate : 192 kb/s
Channel(s) : 2 channels
Channel positions : Front: L R
Sampling rate : 48.0 kHz
Frame rate : 31.250 FPS (1536 SPF)
Bit depth : 16 bits
Compression mode : Lossy
Stream size : 59.8 MiB (10%)
Alignment : Split accross interleaves
Interleave, duration : 40 ms (1.00 video frame)
Interleave, preload duratio : 500 ms
Service kind : Complete Main

Скриншоты


Download

Download free and at maximum speed!

How to Download? · What is a torrent? · Ratings and Limitations




You cannot post new topics in this forum
You cannot reply to topics in this forum
You cannot edit your posts in this forum
You cannot delete your posts in this forum
You cannot vote in polls in this forum
You cannot attach files in this forum
You cannot download files in this forum