Пламенный лабиринт / Labyrinth of Flames (Нисидзима Кацухико) [OVA] [2 из 2] [Без хардсаба] [RUS(int), JAP, SUB] [2000, боевик, самурайский боевик, комедия, этти, сэйнэн, DVDRip] [720p]


Размер:  884 MB   |    Зарегистрирован:  8 месяцев 6 дней   |    Скачан:  0 раз

Полного источника не было: 8 часов

by lev99 ®
06-Дек-2017 10:12

[Цитировать]

Пламенный лабиринт / Labyrinth of Flames (Нисидзима Кацухико) [OVA] [2 из 2] [Без хардсаба] [RUS(int), JAP, SUB] [2000, боевик, самурайский боевик, комедия, этти, сэйнэн, DVDRip] [720p]

Пламенный лабиринт / Labyrinth of Flames / Honoo no Labyrinth
960x720 (4:3) | 1440x1080 (4:3) | 1920x1080 (16:9)
Страна: Япония
Год выпуска: 2000 г.
Жанр: боевик, самурайский боевик, комедия, этти, сэйнэн
Тип: OVA (2 эп.), 35 мин.
Режиссер: Нисидзима Кацухико
Описание: Современная Россия, Дальний Восток, параллельный мир.
В середине XIX века после поражения в Японии сторонников сёгуната Токугава его наиболее ярые приверженцы отплыли в Россию. Выкупив у царя большой участок земли, они построили город, спроектированный в полном соответствии с японской традицией - храмами, замками и так далее. Так на Дальнем Востоке появился японский анклав - последний оплот культуры Древней Японии.
Юный россиянин Галан помешан на японской культуре. Он мечтает стать настоящим самураем и занимается кэндо - правда, без особого успеха. Какова же его радость, когда красавица Нацу из "русской Японии" дарит ему настоящую древнюю когатану (малый меч)! И, конечно, Галан с радостью соглашается поехать к ней домой, чтобы посмотреть коллекцию оружия ее отца.
Однако вскоре выясняется, что у Нацу на Галана вполне определенные планы. Ведь она - дочь правителя "русской Японии", и в ее роду древний меч дарят будущим зятьям... С другой стороны, отец Нацу совсем не собирается соглашаться с ее выбором. Он уже подобрал дочери жениха.
- world-art - | - kinopoisk -
Возраст: 16+
Рейтинг MPAA: R
Доп. информация: Это апскейл с чисткой артефактов, что бы лучше выглядело на современных 16:9 экранах.
Сохранены оригинальные главы.
Качество видео: DVDRip
Тип релиза: Без хардсаба
Формат видео: MKV
Автор рипа: [mottoj]
Видео: x264@L4.1, 960x720 (4:3), 23.976 fps, ~1374 kbps, 0.083 bit/pixel, 8 bit
Аудио: AC-3, 192 Kbps, 48.0Hz, 2 ch Язык Русский (в составе контейнера) ; Озвучка: Одноголосная (жен.) Persona99 / GSGroup
Аудио 2: AC-3, 192 Kbps, 48.0Hz, 2 ch Язык Русский (в составе контейнера) ; Озвучка 2: Оригинальная
Cубтитры: ASS встроенные в составе контейнера Язык субтитров русский; Перевод: Blast Off

Названия эпизодов

01. Лабиринт Самурая? Любвиринт?
02. Сокровище Лабиринта? Любвиринт?

MediaInfo

Общее
Уникальный идентификатор : 178967792466403887914105378332168409940 (0x86A3F16C53C7197EA2555899AA53D354)
Полное имя : \Honoo no Labyrinth OVA [lev99]\Honoo no Labyrinth OVA - 01 [DVDRip 960x720 8bit] [720p] [Persona99].mkv
Формат : Matroska
Версия формата : Version 4 / Version 2
Размер файла : 410 Мбайт
Продолжительность : 32 м. 33 с.
Общий поток : 1760 Кбит/сек
Дата кодирования : UTC 2017-12-01 09:35:52
Программа кодирования : mkvmerge v18.0.0 ('Apricity') 64-bit
Библиотека кодирования : libebml v1.3.5 + libmatroska v1.4.8
Обложка : Yes
Attachments : cover.jpg
Видео
Идентификатор : 1
Формат : AVC
Формат/Информация : Advanced Video Codec
Профиль формата : High@L4.1
Настройки формата : CABAC / 9 Ref Frames
Параметр CABAC формата : Да
Параметр RefFrames формата : 9 кадров
Идентификатор кодека : V_MPEG4/ISO/AVC
Продолжительность : 32 м. 33 с.
Битрейт : 1374 Кбит/сек
Ширина : 960 пикселей
Высота : 720 пикселей
Соотношение сторон : 4:3
Режим частоты кадров : Постоянный
Частота кадров : 23,976 (24000/1001) кадра/сек
Цветовое пространство : YUV
Субдискретизация насыщенности : 4:2:0
Битовая глубина : 8 бит
Тип развёртки : Прогрессивная
Бит/(Пиксели*Кадры) : 0.083
Размер потока : 320 Мбайт (78%)
Библиотека кодирования : x264 core 152 r2851 ba24899
Настройки программы : cabac=1 / ref=9 / deblock=1:0:0 / analyse=0x3:0x113 / me=hex / subme=8 / psy=1 / psy_rd=1.00:0.00 / mixed_ref=1 / me_range=16 / chroma_me=1 / trellis=2 / 8x8dct=1 / cqm=0 / deadzone=21,11 / fast_pskip=1 / chroma_qp_offset=-2 / threads=18 / lookahead_threads=3 / sliced_threads=0 / nr=0 / decimate=1 / interlaced=0 / bluray_compat=0 / constrained_intra=0 / bframes=3 / b_pyramid=2 / b_adapt=1 / b_bias=0 / direct=3 / weightb=1 / open_gop=0 / weightp=2 / keyint=250 / keyint_min=23 / scenecut=40 / intra_refresh=0 / rc_lookahead=50 / rc=crf / mbtree=1 / crf=18.0 / qcomp=0.60 / qpmin=0 / qpmax=69 / qpstep=4 / ip_ratio=1.40 / aq=1:1.00
Язык : Japanese
Default : Да
Forced : Нет
Аудио #1
Идентификатор : 2
Формат : AC-3
Формат/Информация : Audio Coding 3
Идентификатор кодека : A_AC3
Продолжительность : 32 м. 32 с.
Вид битрейта : Постоянный
Битрейт : 192 Кбит/сек
Каналы : 2 канала
Расположение каналов : Front: L R
Частота : 48,0 КГц
Частота кадров : 31,250 кадров/сек (1536 SPF)
Битовая глубина : 16 бит
Метод сжатия : С потерями
Размер потока : 44,7 Мбайт (11%)
Заголовок : Persona 99 (Get Smart)
Язык : Russian
ServiceKind/String : Complete Main
Default : Да
Forced : Нет
Аудио #2
Идентификатор : 3
Формат : AC-3
Формат/Информация : Audio Coding 3
Идентификатор кодека : A_AC3
Продолжительность : 32 м. 32 с.
Вид битрейта : Постоянный
Битрейт : 192 Кбит/сек
Каналы : 2 канала
Расположение каналов : Front: L R
Частота : 48,0 КГц
Частота кадров : 31,250 кадров/сек (1536 SPF)
Битовая глубина : 16 бит
Метод сжатия : С потерями
Размер потока : 44,7 Мбайт (11%)
Язык : Japanese
ServiceKind/String : Complete Main
Default : Нет
Forced : Нет
Текст
Идентификатор : 4
Формат : ASS
Идентификатор кодека : S_TEXT/ASS
Идентификатор кодека/Информация : Advanced Sub Station Alpha
Продолжительность : 32 м. 25 с.
Битрейт : 153 бит/сек
ElementCount : 456
Метод сжатия : Без потерь
Размер потока : 36,4 Кбайт (0%)
Язык : Russian
Default : Нет
Forced : Нет
Меню
00:00:00.000 : :Chapter 2
00:01:37.331 : :Chapter 3
00:03:25.472 : :Chapter 4
00:09:56.297 : :Chapter 5
00:18:55.135 : :Chapter 6
00:28:36.216 : :Chapter 7
00:31:48.475 : :Chapter 8

Скриншоты




Вы не можете начинать темы
Вы не можете отвечать на сообщения
Вы не можете редактировать свои сообщения
Вы не можете удалять свои сообщения
Вы не можете голосовать в опросах
Вы не можете прикреплять файлы к сообщениям
Вы можете скачивать файлы